Начать новую тему Ответить на тему
Статистика раздачи
Размер: 442.78 МБ | Добавлен: 26 июн 2020, 20:52 | Скачали: 0
Сидеров: 0  [0 байт/сек]    Личеров: 0  [0 байт/сек]
Пред. тема | След. тема 

Автор
Сообщение

СообщениеДобавлено: 26 июн 2020, 20:52 

Ответить с цитатой 

:wumpscut: - :siamese: / (Wumpscut - Siamese) / [Digipak Edition]
Жанр: EBM, Industrial
Год выпуска диска: 2010
Производитель диска: Germany
Аудио кодек: FLAC
Тип рипа: image+.cue
Битрейт аудио: lossless
Источник: Рип с личного СД
Продолжительность: 00:47:57
Треклист:
01. Falling From Lucifer's Grace 03:50
02. Boneshaker Baybee (Video Edit) 03:35
03. Siamese 04:57
04. Ziribit 04:00
05. Auf Wiedersehn Im Massengrab 04:26
06. Teufelszeug 04:04
07. Bambam 03:32
08. Loyal To My Hate 06:52
09. Blood Stigmata 05:22
10. Killuh 07:20
Код:
Exact Audio Copy V0.99 prebeta 5 from 4. May 2009
Отчёт EAC об извлечении, выполненном 24. июля 2010, 0:30
:Wumpscut: / Siamese
Дисковод: Optiarc DVD RW AD-7201S   Adapter: 2  ID: 1
Режим чтения                 : Достоверность
Использование точного потока : Да
Отключение кэша аудио        : Да
Использование указателей C2  : Нет
Коррекция смещения при чтении                     : 48
Способность читать области Lead-in и Lead-out     : Нет
Заполнение пропущенных сэмплов тишиной            : Да
Удаление блоков с тишиной в начале и конце        : Нет
При вычислениях CRC использовались нулевые сэмплы : Да
Интерфейс                                         : Встроенный Win32-интерфейс для Win NT/2000
Выходной формат : Внутренние WAV-операции
Формат сэмплов  : 44.100 Гц; 16 бит; стерео
TOC извлечённого CD
     Трек |   Старт  | Длительность | Начальный сектор | Конечный сектор
    ---------------------------------------------------------------------
       1  |  0:00.00 |    3:50.27   |           0      |      17276
       2  |  3:50.27 |    3:34.74   |       17277      |      33400
       3  |  7:25.26 |    4:57.29   |       33401      |      55704
       4  | 12:22.55 |    4:00.13   |       55705      |      73717
       5  | 16:22.68 |    4:26.08   |       73718      |      93675
       6  | 20:49.01 |    4:03.35   |       93676      |     111935
       7  | 24:52.36 |    3:32.10   |      111936      |     127845
       8  | 28:24.46 |    6:52.09   |      127846      |     158754
       9  | 35:16.55 |    5:21.47   |      158755      |     182876
      10  | 40:38.27 |    7:19.34   |      182877      |     215835
Характеристики диапазона извлечения и сообщения об ошибках
Выбранный диапазон
     Имя файла D:\Раздачи\Wumpscut - Siamese\Wumpscut  - Siamese.wav
     Пиковый уровень 99.9 %
     Качество диапазона 100.0 %
     CRC теста 01DE695B
     CRC копии 01DE695B
     Копирование... OK
Ошибок не произошло
Конец отчёта
Код:
Started at: суббота, 24. 07. 2010. - 0:36.53
1 file found
1 -===- D:\Раздачи\Wumpscut - Siamese\Wumpscut  - Siamese.flac
  Extracted successfully
  Conclusion: this track is CDDA with probability 100%
  Tempfile successfully deleted.
Finished at: суббота, 24. 07. 2010. - 0:43.06 (operation time: 0:06.13)
Label:Beton Kopf Media, Beton Kopf Media
Catalog#:bkm etah 90cd, bkm etah90cd
Format:CD, Album, Digipak
Country:Germany
Released:16 Apr 2010
Genre:Electronic
Style:EBM, Industrial
HQ Scans Full Complete
Правила, инструкции, FAQ!!!
Торрент  Добавлен [26 июн 2020, 20:52] Скачать торрент Магнет ссылка
Скачать торрент
[ Размер 18.4 КБ / Просмотров 11 ]

Статус
Проверен 
 
Размер  442.78 МБ
Приватный: Нет (DHT включён)
.torrent скачан  0
 


     Отправить личное сообщение
   
Страница 1 из 1
Показать сообщения за:  Поле сортировки  
Начать новую тему Ответить на тему


Сейчас этот форум просматривают: нет зарегистрированных пользователей и гости: 0


Вы не можете начинать темы
Вы не можете отвечать на сообщения
Вы не можете редактировать свои сообщения
Вы не можете удалять свои сообщения
Вы не можете добавлять вложения

Перейти:  
cron