Начать новую тему Ответить на тему
Статистика раздачи
Размер: 421.94 МБ | Добавлен: 26 июн 2020, 17:13 | Скачали: 0
Сидеров: 0  [0 байт/сек]    Личеров: 0  [0 байт/сек]
Пред. тема | След. тема 

Автор
Сообщение

СообщениеДобавлено: 26 июн 2020, 17:13 

Ответить с цитатой 

Wumpscut / Schrekk & Grauss
Жанр: EBM, Industrial
Страна-производитель диска: Germany
Год издания диска: 2011
Издатель (лейбл): Beton Kopf Media
Номер по каталогу: BKM ETAH 100
Страна: Germany
Аудиокодек: FLAC (*.flac)
Тип рипа: image+.cue
Битрейт аудио: lossless
Продолжительность: 0:49:02.50
Источник (релизер): CD из личной коллекции.
Наличие сканов в содержимом раздачи: да
Треклист:
01. Rudolf Wolzek 4:28
02. Schrekk & Grauss 5:15
03. Muselmann 6:06
04. Elende Buben 3:34
05. Patient A. 5:57
06. Jiddisch Is A Zwillink 6:09
07. Wumpelstilz 4:43
08. Kikeriki 3:35
09. Zombibikini 5:01
10. Alles Aus 4:15
Discogs
Код:
Exact Audio Copy V0.99 prebeta 5 from 4. May 2009
Отчёт EAC об извлечении, выполненном 29. мая 2011, 7:43
Wumpscut / Schrekk & Grauss
Дисковод: TSSTcorpCDDVDW TS-L632H   Adapter: 0  ID: 0
Режим чтения                 : Достоверность
Использование точного потока : Да
Отключение кэша аудио        : Да
Использование указателей C2  : Нет
Коррекция смещения при чтении                     : 6
Способность читать области Lead-in и Lead-out     : Нет
Заполнение пропущенных сэмплов тишиной            : Да
Удаление блоков с тишиной в начале и конце        : Нет
При вычислениях CRC использовались нулевые сэмплы : Да
Интерфейс                                         : Встроенный Win32-интерфейс для Win NT/2000
Выходной формат          : Пользовательский кодировщик
Выбранный битрейт        : 1024 kBit/s
Качество                 : Высокий
Добавление ID3-тэга      : Нет
Утилита сжатия           : C:\Program Files\Exact Audio Copy\FLAC\FLAC.EXE
Дополнительные параметры : -6 -V -T "ARTIST=%a" -T "TITLE=%t" -T "ALBUM=%g" -T "DATE=%y" -T "TRACKNUMBER=%n" -T "GENRE=%m" -T "COMMENT=%e" %s -o %d
TOC извлечённого CD
     Трек |   Старт  | Длительность | Начальный сектор | Конечный сектор
    ---------------------------------------------------------------------
       1  |  0:00.00 |    4:27.72   |           0      |      20096
       2  |  4:27.72 |    5:15.15   |       20097      |      43736
       3  |  9:43.12 |    6:05.33   |       43737      |      71144
       4  | 15:48.45 |    3:34.08   |       71145      |      87202
       5  | 19:22.53 |    5:57.21   |       87203      |     113998
       6  | 25:19.74 |    6:08.64   |      113999      |     141662
       7  | 31:28.63 |    4:42.31   |      141663      |     162843
       8  | 36:11.19 |    3:35.18   |      162844      |     178986
       9  | 39:46.37 |    5:01.31   |      178987      |     201592
      10  | 44:47.68 |    4:14.57   |      201593      |     220699
Характеристики диапазона извлечения и сообщения об ошибках
Выбранный диапазон
     Имя файла C:\Users\Алексей\Desktop\iPOD\Wumpscut - Schrekk & Grauss.wav
     Пиковый уровень 99.7 %
     Качество диапазона 100.0 %
     CRC теста E9CD1FA1
     CRC копии E9CD1FA1
     Копирование... OK
Ошибок не произошло
AccurateRip: сводка
Трек  1  нет в базе данных
Трек  2  нет в базе данных
Трек  3  нет в базе данных
Трек  4  нет в базе данных
Трек  5  нет в базе данных
Трек  6  нет в базе данных
Трек  7  нет в базе данных
Трек  8  нет в базе данных
Трек  9  нет в базе данных
Трек 10  нет в базе данных
Ни одного трека нет в базе AccurateRip
Конец отчёта
Код:
REM GENRE Electronic
REM DATE 2011
REM DISCID 950B7E0A
REM COMMENT "ExactAudioCopy v0.99pb5"
PERFORMER "Wumpscut"
TITLE "Schrekk & Grauss"
FILE "Wumpscut - Schrekk & Grauss.flac" WAVE
  TRACK 01 AUDIO
    TITLE "Rudolf Wolzek"
    PERFORMER "Wumpscut"
    INDEX 01 00:00:00
  TRACK 02 AUDIO
    TITLE "Schrekk & Grauss"
    PERFORMER "Wumpscut"
    INDEX 00 04:25:72
    INDEX 01 04:27:72
  TRACK 03 AUDIO
    TITLE "Muselmann"
    PERFORMER "Wumpscut"
    INDEX 00 09:41:12
    INDEX 01 09:43:12
  TRACK 04 AUDIO
    TITLE "Elende Buben"
    PERFORMER "Wumpscut"
    INDEX 00 15:46:45
    INDEX 01 15:48:45
  TRACK 05 AUDIO
    TITLE "Patient A."
    PERFORMER "Wumpscut"
    INDEX 00 19:20:53
    INDEX 01 19:22:53
  TRACK 06 AUDIO
    TITLE "Jiddisch Is A Zwillink"
    PERFORMER "Wumpscut"
    INDEX 00 25:17:74
    INDEX 01 25:19:74
  TRACK 07 AUDIO
    TITLE "Wumpelstilz"
    PERFORMER "Wumpscut"
    INDEX 00 31:26:63
    INDEX 01 31:28:63
  TRACK 08 AUDIO
    TITLE "Kikeriki"
    PERFORMER "Wumpscut"
    INDEX 00 36:09:19
    INDEX 01 36:11:19
  TRACK 09 AUDIO
    TITLE "Zombibikini"
    PERFORMER "Wumpscut"
    INDEX 00 39:44:37
    INDEX 01 39:46:37
  TRACK 10 AUDIO
    TITLE "Alles Aus"
    PERFORMER "Wumpscut"
    INDEX 00 44:45:68
    INDEX 01 44:47:68
Код:
[url=https://fastpic.ru/view/22/2011/0606/dfe65964edac0f83dcfedb5fb6ecaa84.jpg.html][img]http://i22.fastpic.ru/thumb/2011/0606/84/dfe65964edac0f83dcfedb5fb6ecaa84.jpeg[/img][/url][url=https://fastpic.ru/view/22/2011/0606/e91fdbb10d8460bc1947bde5bd337047.jpg.html][img]http://i22.fastpic.ru/thumb/2011/0606/47/e91fdbb10d8460bc1947bde5bd337047.jpeg[/img][/url][url=https://fastpic.ru/view/22/2011/0606/041f235db6b52da50d78ee126a4c8bbc.jpg.html][img]http://i22.fastpic.ru/thumb/2011/0606/bc/041f235db6b52da50d78ee126a4c8bbc.jpeg[/img][/url][url=https://fastpic.ru/view/22/2011/0606/105f2be8a693deb10596a730bf0bb6cb.jpg.html][img]http://i22.fastpic.ru/thumb/2011/0606/cb/105f2be8a693deb10596a730bf0bb6cb.jpeg[/img][/url]
Выражаю благодарность kergarn`у за HQ scans!
Правила, инструкции, FAQ!!!
Торрент  Добавлен [26 июн 2020, 17:13] Скачать торрент Магнет ссылка
Скачать торрент
[ Размер 18.04 КБ / Просмотров 5 ]

Статус
Проверен 
 
Размер  421.94 МБ
Приватный: Нет (DHT включён)
.torrent скачан  0
 


     Отправить личное сообщение
   
Страница 1 из 1
Показать сообщения за:  Поле сортировки  
Начать новую тему Ответить на тему


Сейчас этот форум просматривают: нет зарегистрированных пользователей и гости: 0


Вы не можете начинать темы
Вы не можете отвечать на сообщения
Вы не можете редактировать свои сообщения
Вы не можете удалять свои сообщения
Вы не можете добавлять вложения

Перейти:  
cron