Начать новую тему Ответить на тему
Статистика раздачи
Размер: 1.65 ГБ | Добавлен: 26 июн 2020, 20:50 | Скачали: 0
Сидеров: 0  [0 байт/сек]    Личеров: 0  [0 байт/сек]
Пред. тема | След. тема 

Автор
Сообщение

СообщениеДобавлено: 26 июн 2020, 20:50 

Ответить с цитатой 

Wumpscut - Madman Szpital (Box 2×CD, Limited Edition)



Жанр: EBM, Industrial
Страна-производитель диска: Germany
Год выпуска диска: 2013
Издатель (лейбл): Beton Kopf Media
Номер по каталогу: ETAH 121 (Catalog Number 2CD-DVD Size Digipak): ETAH 124
Страна: Germany
Аудио кодек: FLAC (*.flac)
Тип рипа: image+.cue
Битрейт аудио: lossless
Продолжительность: 2~01:56:23
Источник (релизер): Собственный рип
Наличие сканов в содержимом раздачи: да, PNG 600dpi
Limited to 1515 copies
http://www.discogs.com/label/Beton+Kopf+Media » http://www.wumpscut.com/ » http://ru.wikipedia.org/wiki/Wumpscut » http://www.discogs.com/wumpscut-Szpital-Box/release/4220725
01. Der Liebe Gott Sieht Alles 3:08
02. Tod Essen Leben Auf 4:08
03. Madman Szpital 5:43
04. The Duke Of Death 4:17
05. We Are Immortal 3:41
06. Ich Bin Der Tod 4:17
07. Gabi Grausam 4:24
08. Moshe Tokoloshe 4:00
09. Du Neger 3:52
10. Vegan Witch 4:47
Код:
Exact Audio Copy V1.0 beta 3 from 29. August 2011
Отчёт EAC об извлечении, выполненном 12. августа 2013, 20:23
Wumpscut / Madman Szpital (Main Album)
Дисковод: PIONEER BD-RW   BDR-206   Adapter: 0  ID: 2
Режим чтения                 : Достоверность
Использование точного потока : Да
Отключение кэша аудио        : Да
Использование указателей C2  : Нет
Коррекция смещения при чтении                     : 667
Способность читать области Lead-in и Lead-out     : Нет
Заполнение пропущенных сэмплов тишиной            : Да
Удаление блоков с тишиной в начале и конце        : Нет
При вычислениях CRC использовались нулевые сэмплы : Да
Интерфейс                                         : Встроенный Win32-интерфейс для Win NT/2000
Выходной формат          : Пользовательский кодировщик
Выбранный битрейт        : 1024 kBit/s
Качество                 : Высокий
Добавление ID3-тега      : Нет
Утилита сжатия           : C:\Program Files (x86)\Exact Audio Copy\FLAC\FLAC.EXE
Дополнительные параметры : -T "COMMENT=Ripped by SergeyJD"-8 -V -T "ARTIST=%artist%" -T "TITLE=%title%" -T "ALBUM=%albumtitle%" -T "DATE=%year%" -T "TRACKNUMBER=%tracknr%" -T "GENRE=%genre%" -T "COMMENT=%comment%" -T "BAND=%albuminterpret%" -T "ALBUMARTIST=%albuminterpret%" -T "COMPOSER=%composer%" %haslyrics%--tag-from-file=LYRICS="%lyricsfile%"%haslyrics% -T "DISCNUMBER=%cdnumber%" -T "TOTALDISCS=%totalcds%" -T "TOTALTRACKS=%numtracks%" %hascover%--picture="%coverfile%"%hascover% %source% -o %dest%
TOC извлечённого CD
     Трек |   Старт  | Длительность | Начальный сектор | Конечный сектор
    ---------------------------------------------------------------------
       1  |  0:00.00 |    3:07.63   |           0      |      14087
       2  |  3:07.63 |    4:08.00   |       14088      |      32687
       3  |  7:15.63 |    5:42.70   |       32688      |      58407
       4  | 12:58.58 |    4:16.56   |       58408      |      77663
       5  | 17:15.39 |    3:41.18   |       77664      |      94256
       6  | 20:56.57 |    4:16.49   |       94257      |     113505
       7  | 25:13.31 |    4:24.02   |      113506      |     133307
       8  | 29:37.33 |    3:59.67   |      133308      |     151299
       9  | 33:37.25 |    3:51.73   |      151300      |     168697
      10  | 37:29.23 |    4:46.38   |      168698      |     190185
Характеристики диапазона извлечения и сообщения об ошибках
Выбранный диапазон
     Имя файла D:\РАЗДАЧИ!!!!\Wumpscut - Madman Szpital (Box 2×CD, Limited Edition) - 2013\Disc 1 (Main Album)\Wumpscut - Madman Szpital (Main Album).wav
     Пиковый уровень 98.8 %
     Скорость извлечения 1.6 X
     Качество диапазона 99.9 %
     CRC теста F1989842
     CRC копии F1989842
     Копирование... OK
Ошибок не произошло
AccurateRip: сводка
Трек  1  отсутствует в базе данных
Трек  2  отсутствует в базе данных
Трек  3  отсутствует в базе данных
Трек  4  отсутствует в базе данных
Трек  5  отсутствует в базе данных
Трек  6  отсутствует в базе данных
Трек  7  отсутствует в базе данных
Трек  8  отсутствует в базе данных
Трек  9  отсутствует в базе данных
Трек 10  отсутствует в базе данных
Ни одного трека нет в базе AccurateRip
Конец отчёта
==== Контрольная сумма отчёта 82B381EF57B66927CD8407EDAB8F4A14830AD12AD9B4603ABA3A7BF79401909F ====
 
Код:
  REM GENRE "EBM, Industrial"
REM DATE 2013
REM DISCID 8609E70A
REM COMMENT "ExactAudioCopy v1.0b3"
PERFORMER "Wumpscut"
TITLE "Madman Szpital (Main Album)"
FILE "Wumpscut - Madman Szpital (Main Album).flac" WAVE
  TRACK 01 AUDIO
    TITLE "Der liebe Gott sieht alles"
    PERFORMER "Wumpscut"
    INDEX 01 00:00:00
  TRACK 02 AUDIO
    TITLE "Tod Essen Leben auf"
    PERFORMER "Wumpscut"
    INDEX 01 03:07:63
  TRACK 03 AUDIO
    TITLE "Madman Szpital"
    PERFORMER "Wumpscut"
    INDEX 01 07:15:63
  TRACK 04 AUDIO
    TITLE "The Duke of Death"
    PERFORMER "Wumpscut"
    INDEX 01 12:58:58
  TRACK 05 AUDIO
    TITLE "We Are Immortal"
    PERFORMER "Wumpscut"
    INDEX 01 17:15:39
  TRACK 06 AUDIO
    TITLE "Ich bin der Tod"
    PERFORMER "Wumpscut"
    INDEX 01 20:56:57
  TRACK 07 AUDIO
    TITLE "Gabi Grausam"
    PERFORMER "Wumpscut"
    INDEX 01 25:13:31
  TRACK 08 AUDIO
    TITLE "Moshe Tokoloshe"
    PERFORMER "Wumpscut"
    INDEX 01 29:37:33
  TRACK 09 AUDIO
    TITLE "Du Neger"
    PERFORMER "Wumpscut"
    INDEX 01 33:37:25
  TRACK 10 AUDIO
    TITLE "Vegan Witch"
    PERFORMER "Wumpscut"
    INDEX 01 37:29:23
 
Код:
-----------------------
DON'T MODIFY THIS FILE
-----------------------
PERFORMER: auCDtect Task Manager, ver. 1.5.1RC6 build 1.5.1.7
Copyright (c) 2008-2010 y-soft. All rights reserved
[url=http://y-soft.org]http://y-soft.org[/url]
ANALYZER: auCDtect: CD records authenticity detector, version 0.8.2
Copyright (c) 2004 Oleg Berngardt. All rights reserved.
Copyright (c) 2004 Alexander Djourik. All rights reserved.
FILE: Wumpscut - Madman Szpital (Main Album).flac
  Size: 319924154 Hash: 07AA1827DA86727E35EB8DBAE9E137BB Accuracy: -m0
  Conclusion: CDDA 100%
  Signature: 2D9F474831DA71DD56B191A43269D43A25DB84E8
 
#77701. Madman Szpital (Dubbydub Remix By Wumpscut) 4:57
02. Der Liebe Gott Sieht Alles (AR Remix) 7:27
03. Gabi Grausam (Nigen Remix) 6:44
04. Tod Essen Leben Auf (Schramm Remix) 4:26
05. Madman Szpital (Airforge Remix) 3:45
06. Madman Szpital (XL Instinct Primal Remix) 5:55
07. Ich Bin Der Tod (XSRY Remix) 4:30
08. Gabi Grausam (Ld210 Remix) 4:44
09. Madman Szpital (Skon Remix) 4:33
10. We Are Immortal (Turmyte Remix) 8:57
11. Tod Essen Leben Auf (Nigen Remix) 4:59
12. Gabi Grausam (Sinthetik Messiah Remix) 6:47
13. Gabi Grausam (Amazingmono Remix) 3:10
14. Gabi Grausam (R@zorbla.de Remix) 3:17
Код:
Exact Audio Copy V1.0 beta 3 from 29. August 2011
Отчёт EAC об извлечении, выполненном 12. августа 2013, 23:25
Wumpscut / Madman Szpital (Remix Album)
Дисковод: PIONEER BD-RW   BDR-206   Adapter: 0  ID: 2
Режим чтения                 : Достоверность
Использование точного потока : Да
Отключение кэша аудио        : Да
Использование указателей C2  : Нет
Коррекция смещения при чтении                     : 667
Способность читать области Lead-in и Lead-out     : Нет
Заполнение пропущенных сэмплов тишиной            : Да
Удаление блоков с тишиной в начале и конце        : Нет
При вычислениях CRC использовались нулевые сэмплы : Да
Интерфейс                                         : Встроенный Win32-интерфейс для Win NT/2000
Выходной формат          : Пользовательский кодировщик
Выбранный битрейт        : 1024 kBit/s
Качество                 : Высокий
Добавление ID3-тега      : Нет
Утилита сжатия           : C:\Program Files (x86)\Exact Audio Copy\FLAC\FLAC.EXE
Дополнительные параметры : -T "COMMENT=Ripped by SergeyJD"-8 -V -T "ARTIST=%artist%" -T "TITLE=%title%" -T "ALBUM=%albumtitle%" -T "DATE=%year%" -T "TRACKNUMBER=%tracknr%" -T "GENRE=%genre%" -T "COMMENT=%comment%" -T "BAND=%albuminterpret%" -T "ALBUMARTIST=%albuminterpret%" -T "COMPOSER=%composer%" %haslyrics%--tag-from-file=LYRICS="%lyricsfile%"%haslyrics% -T "DISCNUMBER=%cdnumber%" -T "TOTALDISCS=%totalcds%" -T "TOTALTRACKS=%numtracks%" %hascover%--picture="%coverfile%"%hascover% %source% -o %dest%
TOC извлечённого CD
     Трек |   Старт  | Длительность | Начальный сектор | Конечный сектор
    ---------------------------------------------------------------------
       1  |  0:00.00 |    4:56.67   |           0      |      22266
       2  |  4:56.67 |    7:26.33   |       22267      |      55749
       3  | 12:23.25 |    6:43.47   |       55750      |      86021
       4  | 19:06.72 |    4:26.30   |       86022      |     106001
       5  | 23:33.27 |    3:45.15   |      106002      |     122891
       6  | 27:18.42 |    5:54.63   |      122892      |     149504
       7  | 33:13.30 |    4:29.64   |      149505      |     169743
       8  | 37:43.19 |    4:43.34   |      169744      |     191002
       9  | 42:26.53 |    4:33.09   |      191003      |     211486
      10  | 46:59.62 |    8:57.10   |      211487      |     251771
      11  | 55:56.72 |    4:58.44   |      251772      |     274165
      12  | 60:55.41 |    6:46.32   |      274166      |     304647
      13  | 67:41.73 |    3:09.36   |      304648      |     318858
      14  | 70:51.34 |    3:16.52   |      318859      |     333610
Характеристики диапазона извлечения и сообщения об ошибках
Выбранный диапазон
     Имя файла D:\РАЗДАЧИ!!!!\Wumpscut - Madman Szpital (Box 2×CD, Limited Edition) - 2013\Disc 2 (Remix Album)\Wumpscut - Madman Szpital (Remix Album).wav
     Пиковый уровень 98.8 %
     Скорость извлечения 2.0 X
     Качество диапазона 99.9 %
     CRC теста EBF8B07B
     CRC копии EBF8B07B
     Копирование... OK
Ошибок не произошло
AccurateRip: сводка
Трек  1  : извлечено точно (доверие 1)  [0B478D85]  (AR v2)
Трек  2  : извлечено точно (доверие 1)  [C6B9B22C]  (AR v2)
Трек  3  : извлечено точно (доверие 1)  [BEA1C20B]  (AR v2)
Трек  4  : извлечено точно (доверие 1)  [5D606F40]  (AR v2)
Трек  5  : извлечено точно (доверие 1)  [6E1281E9]  (AR v2)
Трек  6  : извлечено точно (доверие 1)  [7F0F37C4]  (AR v2)
Трек  7  : извлечено точно (доверие 1)  [95638413]  (AR v2)
Трек  8  : извлечено точно (доверие 1)  [A37DC25E]  (AR v2)
Трек  9  : извлечено точно (доверие 1)  [35527188]  (AR v2)
Трек 10  : извлечено точно (доверие 1)  [5BFB0B93]  (AR v2)
Трек 11  : извлечено точно (доверие 1)  [1EE80AC6]  (AR v2)
Трек 12  : извлечено точно (доверие 1)  [0BD7BA45]  (AR v2)
Трек 13  : извлечено точно (доверие 1)  [F0039BB5]  (AR v2)
Трек 14  : извлечено точно (доверие 1)  [BF609FDF]  (AR v2)
Все треки извлечены точно
Конец отчёта
==== Контрольная сумма отчёта CB483EBA35AAF9A9BBF48FEF5BEE953D100FA90F7DD78ACB5AC238CAAC4BB552 ====
 
Код:
REM GENRE "Dark Electro"
REM DATE 2013
REM DISCID D311600E
REM COMMENT "ExactAudioCopy v1.0b3"
PERFORMER "Wumpscut"
TITLE "Madman Szpital (Remix Album)"
FILE "Wumpscut - Madman Szpital (Remix Album).flac" WAVE
  TRACK 01 AUDIO
    TITLE "Madman Szpital (Dubbydub Remix by Wumpscut)"
    PERFORMER "Wumpscut"
    INDEX 01 00:00:00
  TRACK 02 AUDIO
    TITLE "Der liebe Gott sieht alles (AR Remix)"
    PERFORMER "Wumpscut"
    INDEX 01 04:56:67
  TRACK 03 AUDIO
    TITLE "Gabi Grausam (Nigen Remix)"
    PERFORMER "Wumpscut"
    INDEX 01 12:23:25
  TRACK 04 AUDIO
    TITLE "Tod essen Leben auf (Schramm Remix)"
    PERFORMER "Wumpscut"
    INDEX 01 19:06:72
  TRACK 05 AUDIO
    TITLE "Madman Szpital (Airforge Remix)"
    PERFORMER "Wumpscut"
    INDEX 01 23:33:27
  TRACK 06 AUDIO
    TITLE "Madman Szpital (XL Instinct Primal Remix)"
    PERFORMER "Wumpscut"
    INDEX 01 27:18:42
  TRACK 07 AUDIO
    TITLE "Ich bin der Tod (XSRY Remix)"
    PERFORMER "Wumpscut"
    INDEX 01 33:13:30
  TRACK 08 AUDIO
    TITLE "Gabi Grausam (LD210 Remix)"
    PERFORMER "Wumpscut"
    INDEX 01 37:43:19
  TRACK 09 AUDIO
    TITLE "Madman Szpital (Skon Remix)"
    PERFORMER "Wumpscut"
    INDEX 01 42:26:53
  TRACK 10 AUDIO
    TITLE "We Are Immortal (Turmyte Remix)"
    PERFORMER "Wumpscut"
    INDEX 01 46:59:62
  TRACK 11 AUDIO
    TITLE "Tod essen Leben auf (Nigen Remix)"
    PERFORMER "Wumpscut"
    INDEX 01 55:56:72
  TRACK 12 AUDIO
    TITLE "Gabi Grausam (Sinthetik Messiah Remix)"
    PERFORMER "Wumpscut"
    INDEX 01 60:55:41
  TRACK 13 AUDIO
    TITLE "Gabi Grausam (Amazingmono Remix)"
    PERFORMER "Wumpscut"
    INDEX 01 67:41:73
  TRACK 14 AUDIO
    TITLE "Gabi Grausam (R@zorbla.de Remix)"
    PERFORMER "Wumpscut"
    INDEX 01 70:51:34
 
Код:
-----------------------
DON'T MODIFY THIS FILE
-----------------------
PERFORMER: auCDtect Task Manager, ver. 1.5.1RC6 build 1.5.1.7
Copyright (c) 2008-2010 y-soft. All rights reserved
[url=http://y-soft.org]http://y-soft.org[/url]
ANALYZER: auCDtect: CD records authenticity detector, version 0.8.2
Copyright (c) 2004 Oleg Berngardt. All rights reserved.
Copyright (c) 2004 Alexander Djourik. All rights reserved.
FILE: Wumpscut - Madman Szpital (Remix Album).flac
  Size: 530958002 Hash: F7D95ABDB1639C121F0605B1864940C6 Accuracy: -m0
  Conclusion: MPEG 95%
  Signature: CD82FDDF230C2362AA3A1AA34CA92069A42FF416
 
Правила, инструкции, FAQ!!!
Торрент  Добавлен [26 июн 2020, 20:50] Скачать торрент Магнет ссылка
Скачать торрент
[ Размер 18.32 КБ / Просмотров 13 ]

Статус
Проверен 
 
Размер  1.65 ГБ
Приватный: Нет (DHT включён)
.torrent скачан  0
 


     Отправить личное сообщение
   
Страница 1 из 1
Показать сообщения за:  Поле сортировки  
Начать новую тему Ответить на тему


Сейчас этот форум просматривают: нет зарегистрированных пользователей и гости: 0


Вы не можете начинать темы
Вы не можете отвечать на сообщения
Вы не можете редактировать свои сообщения
Вы не можете удалять свои сообщения
Вы не можете добавлять вложения

Перейти:  
cron