Начать новую тему Ответить на тему
Статистика раздачи
Размер: 1.04 ГБ | Добавлен: 26 июн 2020, 17:08 | Скачали: 0
Сидеров: 0  [0 байт/сек]    Личеров: 0  [0 байт/сек]
Пред. тема | След. тема 

Автор
Сообщение

СообщениеДобавлено: 26 июн 2020, 17:08 

Ответить с цитатой 

vProjekt / Exhilarate & Disgust (2CD)
Жанр: EBM, Industrial
Страна-производитель диска: Japan
Год издания диска: 2011
Издатель (лейбл): Deathwatch Asia
Номер по каталогу: DWA 178
Страна: Australia
Аудиокодек: FLAC (*.flac)
Тип рипа: image+.cue
Битрейт аудио: lossless
Продолжительность: 1:15:49.16 + 1:08:09.69
Источник (релизер): 2CD из личной коллекции.
Наличие сканов в содержимом раздачи: да
CD 1 - Exhilarate & Disgust
01. Humanside 3:49
02. Terraform 5:36
03. Exhilarate & Disgust 6:43
04. Splinters In The Frame 6:10
05. Rely 4:30
06. Warlord 5:19
07. Thermite 5:45
08. Contrition Cell 3:53
09. Young Blood 3:18
10. A Kiss Between The Eyes 5:19
11. Tower Of Memories 4:23
12. Infelect Infinity 4:15
13. Shape Of Days 5:10
14. In Severance 5:03
15. Wake 6:37
CD 2 - A Beautiful Reprise
01. Swarms And Hives (feat. Johan Van Roy) 6:27
02. The Sky Fell Aground 5:58
03. Thermite (Slumbering X-Plosive Remix By Amgod) 5:25
04. Voices That Call To Us (Fading Far Behind) 5:01
05. Humanside (Humanization Remix By Controlled Collapse) 5:38
06. Breaking 6:15
07. Raptures 4:26
08. A Kiss Between The Eyes (Die Sektor Remix) 4:21
09. Taste 4:48
10. Splinters In The Frame (Lexincrypt Remix) 6:07
11. Avalanche 6:31
12. Night Imager + Onychophora 7:13
Discogs
Код:
Exact Audio Copy V1.0 beta 3 from 29. August 2011
Отчёт EAC об извлечении, выполненном 15. декабря 2011, 11:44
vProjekt / Exhilarate & Disgust
Дисковод: TSSTcorpCDDVDW TS-L632H   Adapter: 0  ID: 0
Режим чтения                 : Достоверность
Использование точного потока : Да
Отключение кэша аудио        : Да
Использование указателей C2  : Нет
Коррекция смещения при чтении                     : 6
Способность читать области Lead-in и Lead-out     : Нет
Заполнение пропущенных сэмплов тишиной            : Да
Удаление блоков с тишиной в начале и конце        : Нет
При вычислениях CRC использовались нулевые сэмплы : Да
Интерфейс                                         : Встроенный Win32-интерфейс для Win NT/2000
Выходной формат          : Пользовательский кодировщик
Выбранный битрейт        : 1024 kBit/s
Качество                 : Высокий
Добавление ID3-тега      : Нет
Утилита сжатия           : C:\Program Files\Exact Audio Copy\FLAC\FLAC.EXE
Дополнительные параметры : -6 -V -T "ARTIST=%artist%" -T "TITLE=%title%" -T "ALBUM=%albumtitle%" -T "DATE=%year%" -T "TRACKNUMBER=%tracknr%" -T "GENRE=%genre%" -T "COMMENT=%comment%" -T "BAND=%albuminterpret%" -T "ALBUMARTIST=%albuminterpret%" -T "COMPOSER=%composer%" %haslyrics%--tag-from-file=LYRICS="%lyricsfile%"%haslyrics% -T "DISCNUMBER=%cdnumber%" -T "TOTALDISCS=%totalcds%" -T "TOTALTRACKS=%numtracks%" %hascover%--picture="%coverfile%"%hascover% %source% -o %dest%
TOC извлечённого CD
     Трек |   Старт  | Длительность | Начальный сектор | Конечный сектор
    ---------------------------------------------------------------------
       1  |  0:00.00 |    3:48.60   |           0      |      17159
       2  |  3:48.60 |    5:35.52   |       17160      |      42336
       3  |  9:24.37 |    6:42.50   |       42337      |      72536
       4  | 16:07.12 |    6:10.17   |       72537      |     100303
       5  | 22:17.29 |    4:30.02   |      100304      |     120555
       6  | 26:47.31 |    5:18.61   |      120556      |     144466
       7  | 32:06.17 |    5:44.71   |      144467      |     170337
       8  | 37:51.13 |    3:53.22   |      170338      |     187834
       9  | 41:44.35 |    3:18.07   |      187835      |     202691
      10  | 45:02.42 |    5:19.11   |      202692      |     226627
      11  | 50:21.53 |    4:22.61   |      226628      |     246338
      12  | 54:44.39 |    4:15.13   |      246339      |     265476
      13  | 58:59.52 |    5:10.09   |      265477      |     288735
      14  | 64:09.61 |    5:02.39   |      288736      |     311424
      15  | 69:12.25 |    6:36.66   |      311425      |     341190
Характеристики диапазона извлечения и сообщения об ошибках
Выбранный диапазон
     Имя файла C:\Users\Алексей\Desktop\iPOD\vProjekt - Exhilarate & Disgust.wav
     Пиковый уровень 98.8 %
     Скорость извлечения 4.8 X
     Качество диапазона 100.0 %
     CRC теста 6A2C5B7C
     CRC копии 6A2C5B7C
     Копирование... OK
Ошибок не произошло
AccurateRip: сводка
Трек  1  отсутствует в базе данных
Трек  2  отсутствует в базе данных
Трек  3  отсутствует в базе данных
Трек  4  отсутствует в базе данных
Трек  5  отсутствует в базе данных
Трек  6  отсутствует в базе данных
Трек  7  отсутствует в базе данных
Трек  8  отсутствует в базе данных
Трек  9  отсутствует в базе данных
Трек 10  отсутствует в базе данных
Трек 11  отсутствует в базе данных
Трек 12  отсутствует в базе данных
Трек 13  отсутствует в базе данных
Трек 14  отсутствует в базе данных
Трек 15  отсутствует в базе данных
Ни одного трека нет в базе AccurateRip
Конец отчёта
==== Контрольная сумма отчёта 50DE65D84814099F42BE738FAF02F1208A2D0016F2183577EC526F6D40E0E909 ====
Код:
Exact Audio Copy V1.0 beta 3 from 29. August 2011
Отчёт EAC об извлечении, выполненном 15. декабря 2011, 12:30
vProjekt / A Beautiful Reprise
Дисковод: TSSTcorpCDDVDW TS-L632H   Adapter: 0  ID: 0
Режим чтения                 : Достоверность
Использование точного потока : Да
Отключение кэша аудио        : Да
Использование указателей C2  : Нет
Коррекция смещения при чтении                     : 6
Способность читать области Lead-in и Lead-out     : Нет
Заполнение пропущенных сэмплов тишиной            : Да
Удаление блоков с тишиной в начале и конце        : Нет
При вычислениях CRC использовались нулевые сэмплы : Да
Интерфейс                                         : Встроенный Win32-интерфейс для Win NT/2000
Выходной формат          : Пользовательский кодировщик
Выбранный битрейт        : 1024 kBit/s
Качество                 : Высокий
Добавление ID3-тега      : Нет
Утилита сжатия           : C:\Program Files\Exact Audio Copy\FLAC\FLAC.EXE
Дополнительные параметры : -6 -V -T "ARTIST=%artist%" -T "TITLE=%title%" -T "ALBUM=%albumtitle%" -T "DATE=%year%" -T "TRACKNUMBER=%tracknr%" -T "GENRE=%genre%" -T "COMMENT=%comment%" -T "BAND=%albuminterpret%" -T "ALBUMARTIST=%albuminterpret%" -T "COMPOSER=%composer%" %haslyrics%--tag-from-file=LYRICS="%lyricsfile%"%haslyrics% -T "DISCNUMBER=%cdnumber%" -T "TOTALDISCS=%totalcds%" -T "TOTALTRACKS=%numtracks%" %hascover%--picture="%coverfile%"%hascover% %source% -o %dest%
TOC извлечённого CD
     Трек |   Старт  | Длительность | Начальный сектор | Конечный сектор
    ---------------------------------------------------------------------
       1  |  0:00.00 |    6:26.74   |           0      |      29023
       2  |  6:26.74 |    5:58.03   |       29024      |      55876
       3  | 12:25.02 |    5:24.62   |       55877      |      80238
       4  | 17:49.64 |    5:00.73   |       80239      |     102811
       5  | 22:50.62 |    5:38.14   |      102812      |     128175
       6  | 28:29.01 |    6:15.04   |      128176      |     156304
       7  | 34:44.05 |    4:25.65   |      156305      |     176244
       8  | 39:09.70 |    4:21.06   |      176245      |     195825
       9  | 43:31.01 |    4:48.01   |      195826      |     217426
      10  | 48:19.02 |    6:07.02   |      217427      |     244953
      11  | 54:26.04 |    6:30.74   |      244954      |     274277
      12  | 60:57.03 |    7:12.66   |      274278      |     306743
Характеристики диапазона извлечения и сообщения об ошибках
Выбранный диапазон
     Имя файла C:\Users\Алексей\Desktop\iPOD\vProjekt - A Beautiful Reprise.wav
     Пиковый уровень 98.8 %
     Скорость извлечения 4.5 X
     Качество диапазона 99.9 %
     CRC теста E52B4769
     CRC копии E52B4769
     Копирование... OK
Ошибок не произошло
AccurateRip: сводка
Трек  1  отсутствует в базе данных
Трек  2  отсутствует в базе данных
Трек  3  отсутствует в базе данных
Трек  4  отсутствует в базе данных
Трек  5  отсутствует в базе данных
Трек  6  отсутствует в базе данных
Трек  7  отсутствует в базе данных
Трек  8  отсутствует в базе данных
Трек  9  отсутствует в базе данных
Трек 10  отсутствует в базе данных
Трек 11  отсутствует в базе данных
Трек 12  отсутствует в базе данных
Ни одного трека нет в базе AccurateRip
Конец отчёта
==== Контрольная сумма отчёта 6103F6DDBAB7B8ABF69FE93C345B99A1F5FEEA9BC6B30CBB6B14BC7800D8334D ====
Код:
REM GENRE Industrial
REM DATE 2011
REM DISCID D311C50F
REM COMMENT "ExactAudioCopy v1.0b3"
PERFORMER "vProjekt"
TITLE "Exhilarate & Disgust"
FILE "vProjekt - Exhilarate & Disgust.flac" WAVE
  TRACK 01 AUDIO
    TITLE "Humanside"
    PERFORMER "vProjekt"
    INDEX 01 00:00:00
  TRACK 02 AUDIO
    TITLE "Terraform"
    PERFORMER "vProjekt"
    INDEX 00 03:46:60
    INDEX 01 03:48:60
  TRACK 03 AUDIO
    TITLE "Exhilarate & Disgust"
    PERFORMER "vProjekt"
    INDEX 00 09:22:37
    INDEX 01 09:24:37
  TRACK 04 AUDIO
    TITLE "Splinters In The Frame "
    PERFORMER "vProjekt"
    INDEX 00 16:05:12
    INDEX 01 16:07:12
  TRACK 05 AUDIO
    TITLE "Rely"
    PERFORMER "vProjekt"
    INDEX 00 22:17:19
    INDEX 01 22:17:29
  TRACK 06 AUDIO
    TITLE "Warlord"
    PERFORMER "vProjekt"
    INDEX 00 26:47:25
    INDEX 01 26:47:31
  TRACK 07 AUDIO
    TITLE "Thermite"
    PERFORMER "vProjekt"
    INDEX 00 32:06:06
    INDEX 01 32:06:17
  TRACK 08 AUDIO
    TITLE "Contrition Cell"
    PERFORMER "vProjekt"
    INDEX 00 37:51:10
    INDEX 01 37:51:13
  TRACK 09 AUDIO
    TITLE "Young Blood"
    PERFORMER "vProjekt"
    INDEX 00 41:42:36
    INDEX 01 41:44:35
  TRACK 10 AUDIO
    TITLE "A Kiss Between The Eyes"
    PERFORMER "vProjekt"
    INDEX 00 45:00:43
    INDEX 01 45:02:42
  TRACK 11 AUDIO
    TITLE "Tower Of Memories"
    PERFORMER "vProjekt"
    INDEX 00 50:21:47
    INDEX 01 50:21:53
  TRACK 12 AUDIO
    TITLE "Inflect Infinity"
    PERFORMER "vProjekt"
    INDEX 00 54:42:61
    INDEX 01 54:44:39
  TRACK 13 AUDIO
    TITLE "Shape Of Days"
    PERFORMER "vProjekt"
    INDEX 00 58:59:29
    INDEX 01 58:59:52
  TRACK 14 AUDIO
    TITLE "In Severance"
    PERFORMER "vProjekt"
    INDEX 00 64:09:44
    INDEX 01 64:09:61
  TRACK 15 AUDIO
    TITLE "Wake"
    PERFORMER "vProjekt"
    INDEX 00 69:11:69
    INDEX 01 69:12:25
Код:
REM GENRE Industrial
REM DATE 2011
REM DISCID A40FF90C
REM COMMENT "ExactAudioCopy v1.0b3"
PERFORMER "vProjekt"
TITLE "A Beautiful Reprise"
FILE "vProjekt - A Beautiful Reprise.flac" WAVE
  TRACK 01 AUDIO
    TITLE "Swarms And Hives (feat. JOHAN VAN ROY)"
    PERFORMER "vProjekt"
    INDEX 01 00:00:00
  TRACK 02 AUDIO
    TITLE "The Sky Fell Aground"
    PERFORMER "vProjekt"
    INDEX 00 06:26:63
    INDEX 01 06:26:74
  TRACK 03 AUDIO
    TITLE "Thermite (Slumbering X-plosive Remix by AMGOD)"
    PERFORMER "vProjekt"
    INDEX 00 12:24:64
    INDEX 01 12:25:02
  TRACK 04 AUDIO
    TITLE "Voices That Call To Us (Fading Far Behind)"
    PERFORMER "vProjekt"
    INDEX 00 17:47:65
    INDEX 01 17:49:64
  TRACK 05 AUDIO
    TITLE "Humanside (Humanisation Remix by CONTROLLED COLLAPSE)"
    PERFORMER "vProjekt"
    INDEX 00 22:50:47
    INDEX 01 22:50:62
  TRACK 06 AUDIO
    TITLE "Breaking"
    PERFORMER "vProjekt"
    INDEX 00 28:28:70
    INDEX 01 28:29:01
  TRACK 07 AUDIO
    TITLE "Raptures"
    PERFORMER "vProjekt"
    INDEX 00 34:42:06
    INDEX 01 34:44:05
  TRACK 08 AUDIO
    TITLE "A Kiss Between The Eyes (DIE SEKTOR Remix)"
    PERFORMER "vProjekt"
    INDEX 00 39:09:50
    INDEX 01 39:09:70
  TRACK 09 AUDIO
    TITLE "Taste"
    PERFORMER "vProjekt"
    INDEX 00 43:30:66
    INDEX 01 43:31:01
  TRACK 10 AUDIO
    TITLE "Splinters In The Frame (LEXINCRYPT Remix)"
    PERFORMER "vProjekt"
    INDEX 00 48:18:67
    INDEX 01 48:19:02
  TRACK 11 AUDIO
    TITLE "Avalanche"
    PERFORMER "vProjekt"
    INDEX 00 54:25:10
    INDEX 01 54:26:04
  TRACK 12 AUDIO
    TITLE "Night Imager + Onychophora"
    PERFORMER "vProjekt"
    INDEX 00 60:55:04
    INDEX 01 60:57:03
Код:
[url=https://fastpic.ru/view/31/2012/0121/f7e257e10bfae52030edf8412696d3cf.jpg.html][img]http://i31.fastpic.ru/thumb/2012/0121/cf/f7e257e10bfae52030edf8412696d3cf.jpeg[/img][/url][url=https://fastpic.ru/view/30/2012/0121/99511f53c25a23403b3ebfaf3c2bf4f7.jpg.html][img]http://i30.fastpic.ru/thumb/2012/0121/f7/99511f53c25a23403b3ebfaf3c2bf4f7.jpeg[/img][/url][url=https://fastpic.ru/view/27/2012/0121/afb08147a6b0e2b39eb9e6a909a6b47f.jpg.html][img]http://i27.fastpic.ru/thumb/2012/0121/7f/afb08147a6b0e2b39eb9e6a909a6b47f.jpeg[/img][/url][url=https://fastpic.ru/view/28/2012/0121/d45cc1bd18509792722b5d41f1007be4.jpg.html][img]http://i28.fastpic.ru/thumb/2012/0121/e4/d45cc1bd18509792722b5d41f1007be4.jpeg[/img][/url]
[url=https://fastpic.ru/view/31/2012/0121/6317922fc45794b76928c3b926eb4580.jpg.html][img]http://i31.fastpic.ru/thumb/2012/0121/80/6317922fc45794b76928c3b926eb4580.jpeg[/img][/url][url=https://fastpic.ru/view/28/2012/0121/9e716ef69033f70c71531cff00114ba5.jpg.html][img]http://i28.fastpic.ru/thumb/2012/0121/a5/9e716ef69033f70c71531cff00114ba5.jpeg[/img][/url][url=https://fastpic.ru/view/29/2012/0121/54e9d665c1660b6e9971697080776064.jpg.html][img]http://i29.fastpic.ru/thumb/2012/0121/64/54e9d665c1660b6e9971697080776064.jpeg[/img][/url][url=https://fastpic.ru/view/32/2012/0121/39f3f4c4acafd3b238161f8cff8d332b.jpg.html][img]http://i32.fastpic.ru/thumb/2012/0121/2b/39f3f4c4acafd3b238161f8cff8d332b.jpeg[/img][/url]
Правила, инструкции, FAQ!!!
Торрент  Добавлен [26 июн 2020, 17:08] Скачать торрент Магнет ссылка
Скачать торрент
[ Размер 12.6 КБ / Просмотров 4 ]

Статус
Проверен 
 
Размер  1.04 ГБ
Приватный: Нет (DHT включён)
.torrent скачан  0
 


     Отправить личное сообщение
   
Страница 1 из 1
Показать сообщения за:  Поле сортировки  
Начать новую тему Ответить на тему


Сейчас этот форум просматривают: нет зарегистрированных пользователей и гости: 0


Вы не можете начинать темы
Вы не можете отвечать на сообщения
Вы не можете редактировать свои сообщения
Вы не можете удалять свои сообщения
Вы не можете добавлять вложения

Перейти:  
cron