Начать новую тему Ответить на тему
Статистика раздачи
Размер: 353.8 МБ | Добавлен: 26 июн 2020, 20:40 | Скачали: 0
Сидеров: 0  [0 байт/сек]    Личеров: 0  [0 байт/сек]
Пред. тема | След. тема 

Автор
Сообщение

СообщениеДобавлено: 26 июн 2020, 20:40 

Ответить с цитатой 

Vomito Negro / Dare
Жанр: EBM, Industrial
Страна-производитель диска: Belgium
Год издания диска: 1988
Издатель (лейбл): KK Records
Номер по каталогу: KK 013
Страна: Belgium
Аудио кодек: FLAC (*.flac)
Тип рипа: tracks+.cue
Битрейт аудио: lossless
Продолжительность: 00:59:05
Источник (релизер): waffles
Наличие сканов в содержимом раздачи: нет
Треклист:
01. Yellow Fever (04:24)
02. Radio Silence (06:30)
03. Ease The Pain (06:30)
04. Jhaza (02:49)
05. Where's Palmer (05:28)
06. Land Of Confusion (04:30)
07. Stay Alive (03:29)
08. Burn My Heart (03:19)
09. Monday (06:16)
10. Dare (03:39)
11. The New Force (04:00)
12. Fire Burns (04:00)
13. Children Of Today (04:00)
Код:
Exact Audio Copy V0.99 prebeta 4 from 23. January 2008
EAC extraction logfile from 22. April 2009, 11:24
Vomito Negro / Dare
Used drive  : PIONEER DVD-RW  DVR-106D   Adapter: 0  ID: 0
Read mode               : Secure
Utilize accurate stream : Yes
Defeat audio cache      : Yes
Make use of C2 pointers : No
Read offset correction                      : 48
Overread into Lead-In and Lead-Out          : No
Fill up missing offset samples with silence : Yes
Delete leading and trailing silent blocks   : No
Null samples used in CRC calculations       : Yes
Used interface                              : Installed external ASPI interface
Gap handling                                : Appended to previous track
Used output format              : User Defined Encoder
Selected bitrate                : 128 kBit/s
Quality                         : High
Add ID3 tag                     : No
Command line compressor         : C:\Program Files\Exact Audio Copy\Flac\flac.exe
Additional command line options : -8 -A tukey(0.25) -A gauss(0.1875) -b 4096 -V -T "artist=%a" -T "title=%t" -T "album=%g" -T "date=%y" -T "tracknumber=%n" -T "genre=%m" %s --sector-align
TOC of the extracted CD
     Track |   Start  |  Length  | Start sector | End sector
    ---------------------------------------------------------
        1  |  0:00.32 |  4:29.53 |        32    |    20259
        2  |  4:30.10 |  6:33.65 |     20260    |    49799
        3  | 11:04.00 |  6:32.72 |     49800    |    79271
        4  | 17:36.72 |  2:51.68 |     79272    |    92164
        5  | 20:28.65 |  5:32.65 |     92165    |   117129
        6  | 26:01.55 |  4:14.27 |    117130    |   136206
        7  | 30:16.07 |  3:32.23 |    136207    |   152129
        8  | 33:48.30 |  3:23.50 |    152130    |   167404
        9  | 37:12.05 |  6:16.45 |    167405    |   195649
       10  | 43:28.50 |  3:36.45 |    195650    |   211894
       11  | 47:05.20 |  4:02.42 |    211895    |   230086
       12  | 51:07.62 |  4:06.40 |    230087    |   248576
       13  | 55:14.27 |  3:51.45 |    248577    |   265946
Track  1
     Filename Z:\home\iceolate\Music\Vomito Negro - Dare\01 - Yellow Fever.wav
     Pre-gap length  0:00:02.42
     Peak level 96.1 %
     Track quality 100.0 %
     Test CRC 47F306E9
     Copy CRC 47F306E9
     Track not present in AccurateRip database
     Copy OK
Track  2
     Filename Z:\home\iceolate\Music\Vomito Negro - Dare\02 - Radio Silence.wav
     Pre-gap length  0:00:03.24
     Peak level 93.8 %
     Track quality 100.0 %
     Test CRC FD760CA5
     Copy CRC FD760CA5
     Track not present in AccurateRip database
     Copy OK
Track  3
     Filename Z:\home\iceolate\Music\Vomito Negro - Dare\03 - Ease The Pain.wav
     Pre-gap length  0:00:02.70
     Peak level 96.1 %
     Track quality 100.0 %
     Test CRC 82732D3B
     Copy CRC 82732D3B
     Track not present in AccurateRip database
     Copy OK
Track  4
     Filename Z:\home\iceolate\Music\Vomito Negro - Dare\04 - Jhaza.wav
     Pre-gap length  0:00:02.33
     Peak level 96.6 %
     Track quality 100.0 %
     Test CRC 5B71E974
     Copy CRC 5B71E974
     Track not present in AccurateRip database
     Copy OK
Track  5
     Filename Z:\home\iceolate\Music\Vomito Negro - Dare\05 - Where's Palmer.wav
     Pre-gap length  0:00:03.90
     Peak level 96.1 %
     Track quality 100.0 %
     Test CRC D86985F4
     Copy CRC D86985F4
     Track not present in AccurateRip database
     Copy OK
Track  6
     Filename Z:\home\iceolate\Music\Vomito Negro - Dare\06 - Land Of Confusion.wav
     Pre-gap length  0:00:04.26
     Peak level 96.5 %
     Track quality 99.9 %
     Test CRC 2D732AA6
     Copy CRC 2D732AA6
     Track not present in AccurateRip database
     Copy OK
Track  7
     Filename Z:\home\iceolate\Music\Vomito Negro - Dare\07 - Stay Alive.wav
     Pre-gap length  0:00:03.20
     Peak level 97.1 %
     Track quality 100.0 %
     Test CRC 9B10121D
     Copy CRC 9B10121D
     Track not present in AccurateRip database
     Copy OK
Track  8
     Filename Z:\home\iceolate\Music\Vomito Negro - Dare\08 - Burn My Heart.wav
     Pre-gap length  0:00:02.50
     Peak level 96.6 %
     Track quality 100.0 %
     Test CRC 0F6FE2F0
     Copy CRC 0F6FE2F0
     Track not present in AccurateRip database
     Copy OK
Track  9
     Filename Z:\home\iceolate\Music\Vomito Negro - Dare\09 - Monday.wav
     Pre-gap length  0:00:03.77
     Peak level 94.6 %
     Track quality 100.0 %
     Test CRC 3C456F0A
     Copy CRC 3C456F0A
     Track not present in AccurateRip database
     Copy OK
Track 10
     Filename Z:\home\iceolate\Music\Vomito Negro - Dare\10 - Dare.wav
     Pre-gap length  0:00:03.70
     Peak level 95.6 %
     Track quality 100.0 %
     Test CRC B1F106F0
     Copy CRC B1F106F0
     Track not present in AccurateRip database
     Copy OK
Track 11
     Filename Z:\home\iceolate\Music\Vomito Negro - Dare\11 - The New Force.wav
     Pre-gap length  0:00:03.04
     Peak level 95.6 %
     Track quality 100.0 %
     Test CRC CF98F696
     Copy CRC CF98F696
     Track not present in AccurateRip database
     Copy OK
Track 12
     Filename Z:\home\iceolate\Music\Vomito Negro - Dare\12 - Fire Burns.wav
     Pre-gap length  0:00:02.86
     Peak level 96.5 %
     Track quality 100.0 %
     Test CRC CC209769
     Copy CRC CC209769
     Track not present in AccurateRip database
     Copy OK
Track 13
     Filename Z:\home\iceolate\Music\Vomito Negro - Dare\13 - Children Of Today.wav
     Pre-gap length  0:00:02.93
     Peak level 96.6 %
     Track quality 100.0 %
     Test CRC 3E00EA22
     Copy CRC 3E00EA22
     Track not present in AccurateRip database
     Copy OK
None of the tracks are present in the AccurateRip database
No errors occurred
End of status report
Код:
REM GENRE Industrial
REM DATE 1987
REM DISCID 9F0DD90D
REM COMMENT "ExactAudioCopy v0.99pb4"
PERFORMER "Vomito Negro"
TITLE "Dare"
FILE "Vomito Negro - Dare\01 - Yellow Fever.wav" WAVE
  TRACK 01 AUDIO
    TITLE "Yellow Fever"
    PERFORMER "Vomito Negro"
    PREGAP 00:00:32
    INDEX 01 00:00:00
  TRACK 02 AUDIO
    TITLE "Radio Silence"
    PERFORMER "Vomito Negro"
    INDEX 00 04:26:35
FILE "Vomito Negro - Dare\02 - Radio Silence.wav" WAVE
    INDEX 01 00:00:00
  TRACK 03 AUDIO
    TITLE "Ease The Pain"
    PERFORMER "Vomito Negro"
    INDEX 00 06:31:12
FILE "Vomito Negro - Dare\03 - Ease The Pain.wav" WAVE
    INDEX 01 00:00:00
  TRACK 04 AUDIO
    TITLE "Jhaza"
    PERFORMER "Vomito Negro"
    INDEX 00 06:30:47
FILE "Vomito Negro - Dare\04 - Jhaza.wav" WAVE
    INDEX 01 00:00:00
  TRACK 05 AUDIO
    TITLE "Where's Palmer"
    PERFORMER "Vomito Negro"
    INDEX 00 02:48:00
FILE "Vomito Negro - Dare\05 - Where's Palmer.wav" WAVE
    INDEX 01 00:00:00
  TRACK 06 AUDIO
    TITLE "Land Of Confusion"
    PERFORMER "Vomito Negro"
    INDEX 00 05:28:45
FILE "Vomito Negro - Dare\06 - Land Of Confusion.wav" WAVE
    INDEX 01 00:00:00
  TRACK 07 AUDIO
    TITLE "Stay Alive"
    PERFORMER "Vomito Negro"
    INDEX 00 04:11:12
FILE "Vomito Negro - Dare\07 - Stay Alive.wav" WAVE
    INDEX 01 00:00:00
  TRACK 08 AUDIO
    TITLE "Burn My Heart"
    PERFORMER "Vomito Negro"
    INDEX 00 03:29:60
FILE "Vomito Negro - Dare\08 - Burn My Heart.wav" WAVE
    INDEX 01 00:00:00
  TRACK 09 AUDIO
    TITLE "Monday"
    PERFORMER "Vomito Negro"
    INDEX 00 03:19:67
FILE "Vomito Negro - Dare\09 - Monday.wav" WAVE
    INDEX 01 00:00:00
  TRACK 10 AUDIO
    TITLE "Dare"
    PERFORMER "Vomito Negro"
    INDEX 00 06:12:67
FILE "Vomito Negro - Dare\10 - Dare.wav" WAVE
    INDEX 01 00:00:00
  TRACK 11 AUDIO
    TITLE "The New Force"
    PERFORMER "Vomito Negro"
    INDEX 00 03:33:42
FILE "Vomito Negro - Dare\11 - The New Force.wav" WAVE
    INDEX 01 00:00:00
  TRACK 12 AUDIO
    TITLE "Fire Burns"
    PERFORMER "Vomito Negro"
    INDEX 00 03:59:52
FILE "Vomito Negro - Dare\12 - Fire Burns.wav" WAVE
    INDEX 01 00:00:00
  TRACK 13 AUDIO
    TITLE "Children Of Today"
    PERFORMER "Vomito Negro"
    INDEX 00 04:03:45
FILE "Vomito Negro - Dare\13 - Children Of Today.wav" WAVE
    INDEX 01 00:00:00
Правила, инструкции, FAQ!!!
Торрент  Добавлен [26 июн 2020, 20:40] Скачать торрент Магнет ссылка
Скачать торрент
[ Размер 15.09 КБ / Просмотров 9 ]

Статус
Проверен 
 
Размер  353.8 МБ
Приватный: Нет (DHT включён)
.torrent скачан  0
 


     Отправить личное сообщение
   
Страница 1 из 1
Показать сообщения за:  Поле сортировки  
Начать новую тему Ответить на тему


Сейчас этот форум просматривают: нет зарегистрированных пользователей и гости: 0


Вы не можете начинать темы
Вы не можете отвечать на сообщения
Вы не можете редактировать свои сообщения
Вы не можете удалять свои сообщения
Вы не можете добавлять вложения

Перейти:  
cron