Начать новую тему Ответить на тему
Статистика раздачи
Размер: 563.92 МБ | Добавлен: 26 июн 2020, 18:53 | Скачали: 0
Сидеров: 0  [0 байт/сек]    Личеров: 0  [0 байт/сек]
Пред. тема | След. тема 

Автор
Сообщение

СообщениеДобавлено: 26 июн 2020, 18:53 

Ответить с цитатой 

Virtual Victim / Remission
Жанр: EBM, Industrial
Страна-производитель диска: Germany
Год издания диска: 2008
Издатель (лейбл): Codeline Records
Номер по каталогу: CDL 025
Формат: CDr, Album (Limited to 250 CDs)
Аудиокодек: FLAC (*.flac)
Тип рипа: image+.cue
Битрейт аудио: lossless
Продолжительность: 1:12:01.29
Источник (релизер): Физический носитель (Собственный рип с оригинала)
Наличие сканов в содержимом раздачи: да
Треклист:
01. Last Goodbye (Remixed By Exilanation) [5:44]
02. Schicksal (Remixed By Brom:35) [5:41]
03. Clinical White Room (Version 2008) [4:43]
04. Last Journey (Remixed By V1rtual D3scent [4:52]
05. No Escape (Remixed By Re:\Legion) [6:08]
06. Away (Clubmix) [4:40]
07. Last Goodbye (Rude-mix By Exilant) [5:20]
08. Save Me From Darkness (Remixed By Alex Krull) [3:39]
09. Clinical White Room (Remixed By Formalin) [7:03]
10. Schicksal (Slomo-mix By Brom:35) [6:58]
11. Fragment (Extended Version By Avalist) [8:30]
12. Forgotten Longing (Instrumental) [4:23]
13. Decepted - Pray [4:20]
Код:
Exact Audio Copy V1.0 beta 3 from 29. August 2011
EAC extraction logfile from 17. March 2012, 12:40
Virtual Victim / Remission
Used drive  : PLEXTOR BDDVDR PX-B320SA   Adapter: 0  ID: 2
Read mode               : Secure
Utilize accurate stream : Yes
Defeat audio cache      : Yes
Make use of C2 pointers : No
Read offset correction                      : 6
Overread into Lead-In and Lead-Out          : No
Fill up missing offset samples with silence : Yes
Delete leading and trailing silent blocks   : No
Null samples used in CRC calculations       : Yes
Used interface                              : Native Win32 interface for Win NT & 2000
Used output format              : User Defined Encoder
Selected bitrate                : 128 kBit/s
Quality                         : High
Add ID3 tag                     : No
Command line compressor         : C:\Program Files (x86)\FLAC\flac.exe
Additional command line options : -V -8 -T "Date=%year%" -T "Genre=%genre%" %source%
TOC of the extracted CD
     Track |   Start  |  Length  | Start sector | End sector
    ---------------------------------------------------------
        1  |  0:00.00 |  5:44.00 |         0    |    25799
        2  |  5:44.00 |  5:41.00 |     25800    |    51374
        3  | 11:25.00 |  4:43.23 |     51375    |    72622
        4  | 16:08.23 |  4:52.18 |     72623    |    94540
        5  | 21:00.41 |  6:08.00 |     94541    |   122140
        6  | 27:08.41 |  4:39.42 |    122141    |   143107
        7  | 31:48.08 |  5:20.00 |    143108    |   167107
        8  | 37:08.08 |  3:38.41 |    167108    |   183498
        9  | 40:46.49 |  7:03.15 |    183499    |   215238
       10  | 47:49.64 |  6:58.34 |    215239    |   246622
       11  | 54:48.23 |  8:30.00 |    246623    |   284872
       12  | 63:18.23 |  4:23.06 |    284873    |   304603
       13  | 67:41.29 |  4:20.00 |    304604    |   324103
Range status and errors
Selected range
     Filename D:\Virtual Victim - Remission (2008)\Virtual Victim - Remission.wav
     Peak level 100.0 %
     Extraction speed 8.5 X
     Range quality 100.0 %
     Test CRC 691D1957
     Copy CRC 691D1957
     Copy OK
No errors occurred
AccurateRip summary
Track  1  not present in database
Track  2  not present in database
Track  3  not present in database
Track  4  not present in database
Track  5  not present in database
Track  6  not present in database
Track  7  not present in database
Track  8  not present in database
Track  9  not present in database
Track 10  not present in database
Track 11  not present in database
Track 12  not present in database
Track 13  not present in database
None of the tracks are present in the AccurateRip database
End of status report
==== Log checksum DE2AF3671A5A32BAB952C0CE8CEB0CEB22D8E46FEB6414D2A81E3294C29C2E45 ====
Приятного прослушивания !
Раздача осуществляется исключительно в ознакомительных целях!
Всем, кому нравится творчество Virtual Victim
, советую последовать моему примеру и приобрести лицензионные диски легально (хотя бы те, которые возможно купить), и тем самым поддержать исполнителя !
Handing out is carried out only to get acquainted!
Everyone who likes to art Virtual Victim
, I advise to follow my example and buy a license legally CDs (at least those who might buy), and thus support the artist!
Правила, инструкции, FAQ!!!
Торрент  Добавлен [26 июн 2020, 18:53] Скачать торрент Магнет ссылка
Скачать торрент
[ Размер 11.97 КБ / Просмотров 4 ]

Статус
Проверен 
 
Размер  563.92 МБ
Приватный: Нет (DHT включён)
.torrent скачан  0
 


     Отправить личное сообщение
   
Страница 1 из 1
Показать сообщения за:  Поле сортировки  
Начать новую тему Ответить на тему


Сейчас этот форум просматривают: нет зарегистрированных пользователей и гости: 0


Вы не можете начинать темы
Вы не можете отвечать на сообщения
Вы не можете редактировать свои сообщения
Вы не можете удалять свои сообщения
Вы не можете добавлять вложения

Перейти:  
cron