Начать новую тему Ответить на тему
Статистика раздачи
Размер: 753.11 МБ | Добавлен: 26 июн 2020, 17:51 | Скачали: 0
Сидеров: 0  [0 байт/сек]    Личеров: 0  [0 байт/сек]
Пред. тема | След. тема 

Автор
Сообщение

СообщениеДобавлено: 26 июн 2020, 17:51 

Ответить с цитатой 

Vigilante - War Of Ideas [Limited Edition]
Жанр: EBM / industrial
Год выпуска диска: 2007
Производитель диска: (Black Rain Records, Germany)
Аудио кодек: FLAC
Тип рипа: image+.cue
Битрейт аудио: lossless
Продолжительность Disc1: 43:45.74;
Продолжительность Disc2: 49:08.17
Треклист:
Disc1
01. Fair Fight [4:48]
02. In The Name Of God [4:17]
03. Fire [3:37]
04. Forever [3:39]
05. Get In The Ring [4:54]
06. Victims [3:09]
07. Black Day [4:30]
08. Hardcore [4:30]
09. Time To Kill [3:13]
10. Justice [4:18]
11. El Derecho De Vivir En Paz [2:50]
Disc2
01. Fair Fight (UBM remix) [4:29]
02. Fair Fight (Neikka RPM remix) [3:19]
03. Fair Fight (Dreamside remix) [4:59]
04. Fair Fight (Lamia remix) [3:30]
05. Forever (Lucia Ponticas remix) [3:56]
06. Fair Fight (Reel remix) [5:47]
07. Fair Fight (Sophya remix) [4:12]
08. Fair Fight (Amateur God remix) [3:28]
09. Fair Fight (Container 90 old school mix) [4:37]
10. Fair Fight (Forgotten Sunrise mix) [2:36]
11. Fair Fight (Deadcell remix) [4:47]
12. The Other Side (Alien Produkt remix) [3:28]
Источник: Физический носитель
[Видео]
Разрешение: 720x480
Кодек: MPEG 1
Кадров в секунду: 29,97
Битрейт: 1660 Kbps
Фактор качества: 0,16 b/px
[Аудио]
Кодек: MPEG 1 Layer 2
Количество каналов : 2
Частота дискретизации: 48000 Hz
Битрейт: 128 Kbps
Код:
Exact Audio Copy V0.99 prebeta 5 from 4. May 2009
Отчёт EAC об извлечении, выполненном 29. июня 2010, 21:04
Vigilante / War Of Ideas
Дисковод: Optiarc DVD RW AD-7173A   Adapter: 0  ID: 0
Режим чтения                 : Достоверность
Использование точного потока : Да
Отключение кэша аудио        : Да
Использование указателей C2  : Нет
Коррекция смещения при чтении                     : 48
Способность читать области Lead-in и Lead-out     : Нет
Заполнение пропущенных сэмплов тишиной            : Да
Удаление блоков с тишиной в начале и конце        : Нет
При вычислениях CRC использовались нулевые сэмплы : Да
Интерфейс                                         : Установленный внешний ASPI-интерфейс
Выходной формат          : Пользовательский кодировщик
Выбранный битрейт        : 1024 kBit/s
Качество                 : Высокий
Добавление ID3-тэга      : Нет
Утилита сжатия           : C:\Program Files\Exact Audio Copy\Flac\flac.exe
Дополнительные параметры : -6 -V -T "ARTIST=%a" -T "TITLE=%t" -T "ALBUM=%g" -T "DATE=%y" -T "TRACKNUMBER=%n" -T "GENRE=%m" -T "COMMENT=%e" %s -o %d
TOC извлечённого CD
     Трек |   Старт  | Длительность | Начальный сектор | Конечный сектор
    ---------------------------------------------------------------------
       1  |  0:00.00 |    4:48.24   |           0      |      21623
       2  |  4:48.24 |    4:17.37   |       21624      |      40935
       3  |  9:05.61 |    3:37.22   |       40936      |      57232
       4  | 12:43.08 |    3:38.45   |       57233      |      73627
       5  | 16:21.53 |    4:53.60   |       73628      |      95662
       6  | 21:15.38 |    3:09.30   |       95663      |     109867
       7  | 24:24.68 |    4:30.18   |      109868      |     130135
       8  | 28:55.11 |    4:29.41   |      130136      |     150351
       9  | 33:24.52 |    3:13.13   |      150352      |     164839
      10  | 36:37.65 |    4:18.05   |      164840      |     184194
      11  | 40:55.70 |    2:50.04   |      184195      |     196948
      12  | 46:17.74 |    6:16.12   |      208349      |     236560
Характеристики диапазона извлечения и сообщения об ошибках
Выбранный диапазон
     Имя файла H:\СКАЧКА\FLAC\1 TORRENT\Vigilante - War Of Ideas.wav
     Пиковый уровень 100.0 %
     Качество диапазона 99.9 %
     CRC теста 99D06439
     CRC копии 99D06439
     Копирование... OK
Ошибок не произошло
AccurateRip: сводка
Трек  1  нет в базе данных
Трек  2  нет в базе данных
Трек  3  нет в базе данных
Трек  4  нет в базе данных
Трек  5  нет в базе данных
Трек  6  нет в базе данных
Трек  7  нет в базе данных
Трек  8  нет в базе данных
Трек  9  нет в базе данных
Трек 10  нет в базе данных
Трек 11  нет в базе данных
Ни одного трека нет в базе AccurateRip
Конец отчёта
Код:
Exact Audio Copy V0.99 prebeta 5 from 4. May 2009
Отчёт EAC об извлечении, выполненном 30. июня 2010, 17:23
Vigilante / War Of Ideas
Дисковод: Optiarc DVD RW AD-7173A   Adapter: 0  ID: 0
Режим чтения                 : Достоверность
Использование точного потока : Да
Отключение кэша аудио        : Да
Использование указателей C2  : Нет
Коррекция смещения при чтении                     : 48
Способность читать области Lead-in и Lead-out     : Нет
Заполнение пропущенных сэмплов тишиной            : Да
Удаление блоков с тишиной в начале и конце        : Нет
При вычислениях CRC использовались нулевые сэмплы : Да
Интерфейс                                         : Установленный внешний ASPI-интерфейс
Выходной формат          : Пользовательский кодировщик
Выбранный битрейт        : 1024 kBit/s
Качество                 : Высокий
Добавление ID3-тэга      : Нет
Утилита сжатия           : C:\Program Files\Exact Audio Copy\Flac\flac.exe
Дополнительные параметры : -6 -V -T "ARTIST=%a" -T "TITLE=%t" -T "ALBUM=%g" -T "DATE=%y" -T "TRACKNUMBER=%n" -T "GENRE=%m" -T "COMMENT=%e" %s -o %d
TOC извлечённого CD
     Трек |   Старт  | Длительность | Начальный сектор | Конечный сектор
    ---------------------------------------------------------------------
       1  |  0:00.00 |    4:29.14   |           0      |      20188
       2  |  4:29.14 |    3:19.36   |       20189      |      35149
       3  |  7:48.50 |    4:59.32   |       35150      |      57606
       4  | 12:48.07 |    3:30.24   |       57607      |      73380
       5  | 16:18.31 |    3:56.30   |       73381      |      91110
       6  | 20:14.61 |    5:46.69   |       91111      |     117129
       7  | 26:01.55 |    4:11.60   |      117130      |     136014
       8  | 30:13.40 |    3:27.44   |      136015      |     151583
       9  | 33:41.09 |    4:36.44   |      151584      |     172327
      10  | 38:17.53 |    2:35.64   |      172328      |     184016
      11  | 40:53.42 |    4:47.10   |      184017      |     205551
      12  | 45:40.52 |    3:27.40   |      205552      |     221116
Характеристики диапазона извлечения и сообщения об ошибках
Выбранный диапазон
     Имя файла H:\СКАЧКА\FLAC\1 TORRENT\Vigilante - War Of Ideas.wav
     Пиковый уровень 100.0 %
     Качество диапазона 100.0 %
     CRC теста 22599D33
     CRC копии 22599D33
     Копирование... OK
Ошибок не произошло
AccurateRip: сводка
Трек  1  нет в базе данных
Трек  2  нет в базе данных
Трек  3  нет в базе данных
Трек  4  нет в базе данных
Трек  5  нет в базе данных
Трек  6  нет в базе данных
Трек  7  нет в базе данных
Трек  8  нет в базе данных
Трек  9  нет в базе данных
Трек 10  нет в базе данных
Трек 11  нет в базе данных
Трек 12  нет в базе данных
Ни одного трека нет в базе AccurateRip
Конец отчёта
Хочешь скачать, но не можешь из-за отсутствия сидов - пиши в личку!
Правила, инструкции, FAQ!!!
Торрент  Добавлен [26 июн 2020, 17:51] Скачать торрент Магнет ссылка
Скачать торрент
[ Размер 16.32 КБ / Просмотров 12 ]

Статус
Проверен 
 
Размер  753.11 МБ
Приватный: Нет (DHT включён)
.torrent скачан  0
 


     Отправить личное сообщение
   
Страница 1 из 1
Показать сообщения за:  Поле сортировки  
Начать новую тему Ответить на тему


Сейчас этот форум просматривают: нет зарегистрированных пользователей и гости: 0


Вы не можете начинать темы
Вы не можете отвечать на сообщения
Вы не можете редактировать свои сообщения
Вы не можете удалять свои сообщения
Вы не можете добавлять вложения

Перейти:  
cron