Начать новую тему Ответить на тему
Статистика раздачи
Размер: 339.73 МБ | Добавлен: 26 июн 2020, 17:51 | Скачали: 0
Сидеров: 0  [0 байт/сек]    Личеров: 0  [0 байт/сек]
Пред. тема | След. тема 

Автор
Сообщение

СообщениеДобавлено: 26 июн 2020, 17:51 

Ответить с цитатой 

Vigilante - Juicio Final [EP]
Жанр: EBM industrial
Год выпуска диска: 2006
Производитель диска: (Black Rain, Germany)
Аудио кодек: FLAC
Тип рипа: image+.cue
Битрейт аудио: lossless
Продолжительность: 43:37.17
Трэклист:
1. Juicio Final (The Other Side / Spanish Version) [4:12]
2. Resistir (One Good Reason / Spanish Version) [4:08]
3. Sangrar (Survive / Spanish Version) [5:59]
4. Justice (Advance 2006 / A War Of Ideas) [4:18]
5. The Other Side (Funker Vogt remix) [5:33]
6. One Good Reason (Z Prochek remix) [3:45]
7. Survive (Chiasm remix) [3:55]
8. Before (Amateur God remix) [5:31]
9. The Other Side (Obszon Geschopf remix) [6:17]
10. Data Track
*** VIDEO INFO ***
Input Type : YUY2(RAW)
Input Size : 352 x 240
Output Type : YUY2
Output Size : 352 x 240
FrameRate(Frame/sec) : 0.00 (29.97)
*** AUDIO INFO ***
SampleRate(Sample/sec) : 44100
BitRate(Bit/sample) : 16
Channels : 2
KBitRate(KBit/sec) : 224

Источник: Физический носитель
Код:
Exact Audio Copy V0.99 prebeta 5 from 4. May 2009
Отчёт EAC об извлечении, выполненном 17. марта 2010, 11:41
Vigilante / Juicio Final [EP]
Дисковод: Optiarc DVD RW AD-7173A   Adapter: 0  ID: 0
Режим чтения                 : Достоверность
Использование точного потока : Да
Отключение кэша аудио        : Да
Использование указателей C2  : Нет
Коррекция смещения при чтении                     : 48
Способность читать области Lead-in и Lead-out     : Нет
Заполнение пропущенных сэмплов тишиной            : Да
Удаление блоков с тишиной в начале и конце        : Нет
При вычислениях CRC использовались нулевые сэмплы : Да
Интерфейс                                         : Установленный внешний ASPI-интерфейс
Выходной формат          : Пользовательский кодировщик
Выбранный битрейт        : 1024 kBit/s
Качество                 : Высокий
Добавление ID3-тэга      : Нет
Утилита сжатия           : C:\Program Files\Exact Audio Copy\Flac\flac.exe
Дополнительные параметры : -6 -V -T "ARTIST=%a" -T "TITLE=%t" -T "ALBUM=%g" -T "DATE=%y" -T "TRACKNUMBER=%n" -T "GENRE=%m" -T "COMMENT=%e" %s -o %d
TOC извлечённого CD
     Трек |   Старт  | Длительность | Начальный сектор | Конечный сектор
    ---------------------------------------------------------------------
       1  |  0:00.00 |    4:11.50   |           0      |      18874
       2  |  4:11.50 |    4:07.60   |       18875      |      37459
       3  |  8:19.35 |    5:59.01   |       37460      |      64385
       4  | 14:18.36 |    4:18.08   |       64386      |      83743
       5  | 18:36.44 |    5:32.42   |       83744      |     108685
       6  | 24:09.11 |    3:45.00   |      108686      |     125560
       7  | 27:54.11 |    3:54.45   |      125561      |     143155
       8  | 31:48.56 |    5:31.11   |      143156      |     167991
       9  | 37:19.67 |    6:17.25   |      167992      |     196291
      10  | 46:09.17 |    4:07.56   |      207692      |     226272
Характеристики диапазона извлечения и сообщения об ошибках
Выбранный диапазон
     Имя файла H:\СКАЧКА\FLAC\1 TORRENT\Vigilante - Juicio Final [EP].wav
     Пиковый уровень 99.9 %
     Качество диапазона 100.0 %
     CRC теста 997169FF
     CRC копии 997169FF
     Копирование... OK
Ошибок не произошло
AccurateRip: сводка
Трек  1  точное извлечение (доверие 1)  [4D34CE71]
Трек  2  точное извлечение (доверие 1)  [D78AF990]
Трек  3  точное извлечение (доверие 1)  [72614F2F]
Трек  4  точное извлечение (доверие 1)  [D7122B5C]
Трек  5  точное извлечение (доверие 1)  [904FE7C6]
Трек  6  точное извлечение (доверие 1)  [BA49FF45]
Трек  7  точное извлечение (доверие 1)  [44AFB182]
Трек  8  точное извлечение (доверие 1)  [FA6B2250]
Трек  9  точное извлечение (доверие 1)  [D64EA486]
Все треки извлечены точно
Конец отчёта
Хочешь скачать, но не можешь из-за отсутствия сидов - пиши в личку!
Правила, инструкции, FAQ!!!
Торрент  Добавлен [26 июн 2020, 17:51] Скачать торрент Магнет ссылка
Скачать торрент
[ Размер 14.14 КБ / Просмотров 13 ]

Статус
Проверен 
 
Размер  339.73 МБ
Приватный: Нет (DHT включён)
.torrent скачан  0
 


     Отправить личное сообщение
   
Страница 1 из 1
Показать сообщения за:  Поле сортировки  
Начать новую тему Ответить на тему


Сейчас этот форум просматривают: нет зарегистрированных пользователей и гости: 0


Вы не можете начинать темы
Вы не можете отвечать на сообщения
Вы не можете редактировать свои сообщения
Вы не можете удалять свои сообщения
Вы не можете добавлять вложения

Перейти:  
cron