Начать новую тему Ответить на тему
Статистика раздачи
Размер: 482.16 МБ | Добавлен: 26 июн 2020, 17:10 | Скачали: 0
Сидеров: 0  [0 байт/сек]    Личеров: 0  [0 байт/сек]
Пред. тема | След. тема 

Автор
Сообщение

СообщениеДобавлено: 26 июн 2020, 17:10 

Ответить с цитатой 

Negative Format - Moving Past the Boundaries
https://fastpic.ru/view/8/2010/0628/9ca59b0e843b235f41cf2464600ae77f.jpg.html
Жанр: EBM, Industrial, Trance
Год выпуска диска: 2006
Производитель диска: Russia-группа Союз
Аудио кодек: FLAC
Тип рипа: image+.cue
Битрейт аудио: lossless
Продолжительность: 75m 13s
Трэклист:
1 Phase In (Matheu) 4:36
2 Translucent (Matheu) 4:46
3 Echo Chamber (Matheu) 5:24
4 Sustain (Matheu/Matson) 4:48
5 Particle Shift (Matheu) 6:41
6 Centralized (Matheu) 4:37
7 Momentum (Matheu) 5:30
8 Focus (Matheu) 5:34
9 Spectral Analysis (Matheu) 4:52
10 Prototype (Matheu) 5:48
11 Heterodox (Matheu) 5:26
12 Probe V2.4 (Matheu) 7:39
13 Out of Phase (Matheu) 9:24
Доп. информация: Альбом 2005года , выпущен в России по лицензии Metropolis Records
Код:
Exact Audio Copy V0.99 prebeta 3 from 28. July 2007
Отчёт EAC об извлечении, выполненном 28. июня 2010, 19:07
Negative Format / Moving Past the Boundaries
Дисковод: TEAC    DW-548D   Adapter: 1  ID: 1
Режим чтения                 : Достоверность
Использование точного потока : Да
Отключение кэша аудио        : Да
Использование указателей C2  : Нет
Коррекция смещения при чтении                     : 6
Способность читать области Lead-in и Lead-out     : Нет
Заполнение пропущенных сэмплов тишиной            : Да
Удаление блоков с тишиной в начале и конце        : Нет
При вычислениях CRC использовались нулевые сэмплы : Да
Интерфейс                                         : Установленный внешний ASPI-интерфейс
Выходной формат          : Пользовательский кодировщик
Выбранный битрейт        : 768 kBit/s
Качество                 : Высокий
Добавление ID3-тэга      : Нет
Утилита сжатия           : C:\Program Files\Exact Audio Copy\FLAC\FLAC.EXE
Дополнительные параметры : -6 -V -T "ARTIST=%a" -T "TITLE=%t" -T "ALBUM=%g" -T "DATE=%y" -T "TRACKNUMBER=%n" -T "GENRE=%m" -T "COMMENT=%e" %s -o %d
TOC извлечённого CD
     Трек |   Старт  | Длительность | Начальный сектор | Конечный сектор
    ---------------------------------------------------------------------
       1  |  0:00.00 |    4:36.16   |           0      |      20715
       2  |  4:36.16 |    4:46.41   |       20716      |      42206
       3  |  9:22.57 |    5:24.11   |       42207      |      66517
       4  | 14:46.68 |    4:48.48   |       66518      |      88165
       5  | 19:35.41 |    6:41.74   |       88166      |     118314
       6  | 26:17.40 |    4:37.37   |      118315      |     139126
       7  | 30:55.02 |    5:30.34   |      139127      |     163910
       8  | 36:25.36 |    5:34.41   |      163911      |     189001
       9  | 42:00.02 |    4:52.13   |      189002      |     210914
      10  | 46:52.15 |    5:48.00   |      210915      |     237014
      11  | 52:40.15 |    5:26.71   |      237015      |     261535
      12  | 58:07.11 |    7:39.42   |      261536      |     296002
      13  | 65:46.53 |    9:24.65   |      296003      |     338367
Характеристики диапазона извлечения и сообщения об ошибках
Выбранный диапазон
     Имя файла D:\Раздача\Negative Format 2005\Negative Format - Moving Past the Boundaries.wav
     Пиковый уровень 99.9 %
     Качество диапазона 100.0 %
     CRC копии A8D1B8BF
     Копирование... OK
Ошибок не произошло
AccurateRip: сводка
Трек  1  точность не определена (достоверность 7)  [510760D9], AccurateRip вернул [CD6C51DC]
Трек  2  точность не определена (достоверность 6)  [583CB5CE], AccurateRip вернул [2498A99E]
Трек  3  точность не определена (достоверность 6)  [8394A4D7], AccurateRip вернул [D317422F]
Трек  4  точность не определена (достоверность 6)  [74921659], AccurateRip вернул [4085F9C1]
Трек  5  точность не определена (достоверность 6)  [73A13686], AccurateRip вернул [7C712DFE]
Трек  6  точность не определена (достоверность 6)  [1EDD3486], AccurateRip вернул [B870F586]
Трек  7  точность не определена (достоверность 6)  [863D4697], AccurateRip вернул [F478EEDE]
Трек  8  точность не определена (достоверность 6)  [33C62E31], AccurateRip вернул [F18B6E6D]
Трек  9  точность не определена (достоверность 6)  [4D5586A1], AccurateRip вернул [1F55E1C6]
Трек 10  точность не определена (достоверность 6)  [81A54D13], AccurateRip вернул [009D0BEB]
Трек 11  точность не определена (достоверность 6)  [9086D4A9], AccurateRip вернул [85792712]
Трек 12  точность не определена (достоверность 6)  [1EC19224], AccurateRip вернул [793D83A3]
Трек 13  точность не определена (достоверность 6)  [A86809D3], AccurateRip вернул [F881EF53]
Ни один трек не прошёл проверки на точность
В вашей базе может быть иной вариант штамповки диска
Конец отчёта
Правила, инструкции, FAQ!!!
Торрент  Добавлен [26 июн 2020, 17:10] Скачать торрент Магнет ссылка
Скачать торрент
[ Размер 19.5 КБ / Просмотров 2 ]

Статус
Проверен 
 
Размер  482.16 МБ
Приватный: Нет (DHT включён)
.torrent скачан  0
 


     Отправить личное сообщение
   
Страница 1 из 1
Показать сообщения за:  Поле сортировки  
Начать новую тему Ответить на тему


Сейчас этот форум просматривают: нет зарегистрированных пользователей и гости: 0


Вы не можете начинать темы
Вы не можете отвечать на сообщения
Вы не можете редактировать свои сообщения
Вы не можете удалять свои сообщения
Вы не можете добавлять вложения

Перейти:  
cron