Начать новую тему Ответить на тему
Статистика раздачи
Размер: 732.15 МБ | Добавлен: 26 июн 2020, 20:29 | Скачали: 0
Сидеров: 0  [0 байт/сек]    Личеров: 0  [0 байт/сек]
Пред. тема | След. тема 

Автор
Сообщение

СообщениеДобавлено: 26 июн 2020, 20:29 

Ответить с цитатой 

Various Artists - Totentanz: The Best Of Zoth Ommog (2xCD)

Жанр: EBM / Industrial
Год выпуска диска: 1994
Производитель диска: US
Аудио кодек: APE
Тип рипа: image+.cue
Битрейт аудио: lossless
Продолжительность: 1:51:40
Трэклист:
1-01. Leæther Strip - Adrenaline Rush (Vegger Version) (5:30)
1-02. Leæther Strip - Antius (4:44)
1-03. Leæther Strip - Strap Me Down (5:36)
1-04. Leæther Strip - Leather Strip Part II (4:09)
1-05. X Marks The Pedwalk - Abattoir (4:07)
1-06. X Marks The Pedwalk - Desolation (7:05)
1-07. X Marks The Pedwalk - Helpless (3:40)
1-08. Armageddon Dildos - Resist (Lard Mix) (4:47)
1-09. Armageddon Dildos - Frontline Of Violence (5:09)
1-10. Psychopomps - Godshit (Re-Processed Relievo Version) (5:24)
1-11. Psychopomps - Animals (4:46)
1-12. Psychopomps - The Slaughter (4:17)
2-01. Mentallo & The Fixer - Sacrelige (Angel Of Death Mix) (7:07)
2-02. Mentallo & The Fixer - Rapid Suffocation (5:54)
2-03. Klute - Guilty (4:09)
2-04. Klute - Nothing To Hide (2:42)
2-05. Orange Sector - Kalt Wie Stahl (W.W.B.) (3:06)
2-06. Blok 57 - Mean Machine (4:24)
2-07. Yeht Mae - Gods And Children (5:21)
2-08. Ringtailed Snorter - A Kind Of Loss (New Mix) (4:53)
2-09. Spahn Ranch - Succumber (4:34)
2-10. Lights Of Euphoria - Deal In Sex (Protection Mix) (4:00)
2-11. A-Head - Deep Down (5:07)
Доп. информация: Cleopatra; CLEO 9471-2
Код:
Exact Audio Copy V0.99 prebeta 4 from 23. January 2008
EAC extraction logfile from 11. February 2009, 15:51
Various Artists / Totentanz. The Best Of Zoth Ommog, CD01
Used drive  : PIONEER DVD-RW  DVR-112D   Adapter: 1  ID: 1
Read mode               : Secure
Utilize accurate stream : Yes
Defeat audio cache      : Yes
Make use of C2 pointers : No
Read offset correction                      : 48
Overread into Lead-In and Lead-Out          : No
Fill up missing offset samples with silence : Yes
Delete leading and trailing silent blocks   : No
Null samples used in CRC calculations       : Yes
Used interface                              : Installed external ASPI interface
Used output format : Internal WAV Routines
Sample format      : 44.100 Hz; 16 Bit; Stereo
TOC of the extracted CD
     Track |   Start  |  Length  | Start sector | End sector
    ---------------------------------------------------------
        1  |  0:00.32 |  5:33.40 |        32    |    25046
        2  |  5:33.72 |  4:47.30 |     25047    |    46601
        3  | 10:21.27 |  5:37.63 |     46602    |    71939
        4  | 15:59.15 |  4:09.50 |     71940    |    90664
        5  | 20:08.65 |  4:10.50 |     90665    |   109464
        6  | 24:19.40 |  7:08.62 |    109465    |   141626
        7  | 31:28.27 |  3:43.38 |    141627    |   158389
        8  | 35:11.65 |  4:48.22 |    158390    |   180011
        9  | 40:00.12 |  5:10.53 |    180012    |   203314
       10  | 45:10.65 |  5:25.07 |    203315    |   227696
       11  | 50:35.72 |  4:47.33 |    227697    |   249254
       12  | 55:23.30 |  4:19.20 |    249255    |   268699
Range status and errors
Selected range
   Filename H:\Various Artists - Totentanz. The Best Of Zoth Ommog, CD01\CDImage.wav
   Peak level 96.2 %
   Range quality 100.0 %
   Test CRC 00C83D67
   Copy CRC 00C83D67
   Copy OK
No errors occurred
AccurateRip summary
Track  1  accurately ripped (confidence 2)  [9068398C]
Track  2  accurately ripped (confidence 2)  [F3821A07]
Track  3  accurately ripped (confidence 3)  [FDB7042D]
Track  4  accurately ripped (confidence 2)  [587F98BE]
Track  5  accurately ripped (confidence 2)  [893B7AD3]
Track  6  accurately ripped (confidence 3)  [1664259D]
Track  7  accurately ripped (confidence 3)  [B2961D1A]
Track  8  accurately ripped (confidence 3)  [1F6C6A82]
Track  9  accurately ripped (confidence 3)  [74C6FE61]
Track 10  accurately ripped (confidence 3)  [5B716334]
Track 11  accurately ripped (confidence 3)  [B5B98539]
Track 12  accurately ripped (confidence 3)  [7FADDEFB]
All tracks accurately ripped
End of status report
Код:
AUDIOCHECKER v2.0 beta (build 457) - by Dester - opdester@freemail.hu
~~~~~~~~~~~~~~~~~~~~~~~~~~~~~~~~~~
-=== DO NOT EDIT THIS FILE! ===-
Path: ...\Various Artists - Totentanz. The Best Of Zoth Ommog, CD01
01 -=- CDImage.wav -=- CDDA (100%)
190127764
Код:
Exact Audio Copy V0.99 prebeta 4 from 23. February 2008
EAC extraction logfile from 11. February 2009, 16:01
Various Artists / Totentanz. The Best Of Zoth Ommog, CD02
Used drive  : PIONEER DVD-RW  DVR-112D   Adapter: 1  ID: 1
Read mode               : Secure
Utilize accurate stream : Yes
Defeat audio cache      : Yes
Make use of C2 pointers : No
Read offset correction                      : 48
Overread into Lead-In and Lead-Out          : No
Fill up missing offset samples with silence : Yes
Delete leading and trailing silent blocks   : No
Null samples used in CRC calculations       : Yes
Used interface                              : Installed external ASPI interface
Used output format : Internal WAV Routines
Sample format      : 44.100 Hz; 16 Bit; Stereo
TOC of the extracted CD
     Track |   Start  |  Length  | Start sector | End sector
    ---------------------------------------------------------
        1  |  0:00.32 |  7:08.03 |        32    |    32134
        2  |  7:08.35 |  5:56.67 |     32135    |    58901
        3  | 13:05.27 |  4:11.38 |     58902    |    77764
        4  | 17:16.65 |  2:44.00 |     77765    |    90064
        5  | 20:00.65 |  3:11.35 |     90065    |   104424
        6  | 23:12.25 |  4:30.22 |    104425    |   124696
        7  | 27:42.47 |  5:28.10 |    124697    |   149306
        8  | 33:10.57 |  4:56.10 |    149307    |   171516
        9  | 38:06.67 |  4:38.28 |    171517    |   192394
       10  | 42:45.20 |  4:06.57 |    192395    |   210901
       11  | 46:52.02 |  5:06.00 |    210902    |   233851
Range status and errors
Selected range
   Filename H:\Various Artists - Totentanz. The Best Of Zoth Ommog, CD02\CDImage.wav
   Peak level 96.5 %
   Range quality 100.0 %
   Test CRC 96D98D06
   Copy CRC 96D98D06
   Copy OK
No errors occurred
AccurateRip summary
Track  1  accurately ripped (confidence 4)  [E1C4EE10]
Track  2  accurately ripped (confidence 4)  [213F07B3]
Track  3  accurately ripped (confidence 3)  [C069F856]
Track  4  accurately ripped (confidence 3)  [DD0714A5]
Track  5  accurately ripped (confidence 3)  [7A6E050D]
Track  6  accurately ripped (confidence 3)  [20097FBF]
Track  7  accurately ripped (confidence 4)  [427A0D8A]
Track  8  accurately ripped (confidence 4)  [9F6C3714]
Track  9  accurately ripped (confidence 3)  [D262C7C1]
Track 10  accurately ripped (confidence 3)  [95C37109]
Track 11  accurately ripped (confidence 3)  [0A6727E7]
All tracks accurately ripped
End of status report
Код:
AUDIOCHECKER v2.0 beta (build 457) - by Dester - opdester@freemail.hu
~~~~~~~~~~~~~~~~~~~~~~~~~~~~~~~~~~
-=== DO NOT EDIT THIS FILE! ===-
Path: ...\Various Artists - Totentanz. The Best Of Zoth Ommog, CD02
01 -=- CDImage.wav -=- CDDA (100%)
190127764
Cканы в комплекте.
Не забываем про спасибы
Правила, инструкции, FAQ!!!
Торрент  Добавлен [26 июн 2020, 20:29] Скачать торрент Магнет ссылка
Скачать торрент
[ Размер 15.42 КБ / Просмотров 6 ]

Статус
Проверен 
 
Размер  732.15 МБ
Приватный: Нет (DHT включён)
.torrent скачан  0
 


     Отправить личное сообщение
   
Страница 1 из 1
Показать сообщения за:  Поле сортировки  
Начать новую тему Ответить на тему


Сейчас этот форум просматривают: нет зарегистрированных пользователей и гости: 0


Вы не можете начинать темы
Вы не можете отвечать на сообщения
Вы не можете редактировать свои сообщения
Вы не можете удалять свои сообщения
Вы не можете добавлять вложения

Перейти:  
cron