Начать новую тему Ответить на тему
Статистика раздачи
Размер: 387.78 МБ | Добавлен: 26 июн 2020, 17:19 | Скачали: 0
Сидеров: 1  [0 байт/сек]    Личеров: 0  [0 байт/сек]
Пред. тема | След. тема 

Автор
Сообщение

СообщениеДобавлено: 26 июн 2020, 17:19 

Ответить с цитатой 

De_Tot_Cor / Dead Heart [EP]
#777Жанр: EBM industrial
Страна-производитель диска: Spain
Год издания: 2009
Издатель (лейбл): Vendetta Music
Номер по каталогу: VM0027
Аудиокодек: FLAC (*.flac)
Тип рипа: image+.cue
Битрейт аудио: lossless
Продолжительность: 52:17.56
Источник (релизер): Физический носитель
Наличие сканов в содержимом раздачи: да
Треклист:
01. This Is Not Heavy Metal [3:25]
02. I Love You [4:26]
03. Strawberry Panic [5:18]
04. Surrender [4:00]
05. Der Letzte Tango [4:09]
06. Lies Es Mir Vor [4:51]
07. I Love You (Revolution State remix) [5:10]
08. Der Letzte Tango (Subterfuge mix by Engelmacher) [4:47]
09. I Love You (Lost In Love mix by Statik Sky) [5:40]
10. Surrender (Soman remix) [4:43]
11. Lies Es Mir Vor (Microglitch mix by Zuh) [5:48]
Код:
Exact Audio Copy V1.0 beta 3 from 29. August 2011
Отчёт EAC об извлечении, выполненном 16. июня 2012, 11:03
De_Tot_Cor / Dead Heart [EP]
Дисковод: PIONEER DVD-RW  DVR-XD10   Adapter: 3  ID: 0
Режим чтения                 : Достоверность
Использование точного потока : Да
Отключение кэша аудио        : Да
Использование указателей C2  : Нет
Коррекция смещения при чтении                     : 96
Способность читать области Lead-in и Lead-out     : Нет
Заполнение пропущенных сэмплов тишиной            : Да
Удаление блоков с тишиной в начале и конце        : Нет
При вычислениях CRC использовались нулевые сэмплы : Да
Интерфейс                                         : Встроенный Win32-интерфейс для Win NT/2000
Выходной формат          : Пользовательский кодировщик
Выбранный битрейт        : 1024 kBit/s
Качество                 : Высокий
Добавление ID3-тега      : Нет
Утилита сжатия           : C:\Program Files\Exact Audio Copy\FLAC\FLAC.EXE
Дополнительные параметры : -6 -V -T "Date=%year%" -T "Genre=%genre%" %source%
TOC извлечённого CD
     Трек |   Старт  | Длительность | Начальный сектор | Конечный сектор
    ---------------------------------------------------------------------
       1  |  0:00.00 |    3:24.73   |           0      |      15372
       2  |  3:24.73 |    4:26.27   |       15373      |      35349
       3  |  7:51.25 |    5:18.08   |       35350      |      59207
       4  | 13:09.33 |    4:00.34   |       59208      |      77241
       5  | 17:09.67 |    4:08.58   |       77242      |      95899
       6  | 21:18.50 |    4:51.30   |       95900      |     117754
       7  | 26:10.05 |    5:10.00   |      117755      |     141004
       8  | 31:20.05 |    4:47.09   |      141005      |     162538
       9  | 36:07.14 |    5:40.14   |      162539      |     188052
      10  | 41:47.28 |    4:42.42   |      188053      |     209244
      11  | 46:29.70 |    5:47.61   |      209245      |     235330
Характеристики диапазона извлечения и сообщения об ошибках
Выбранный диапазон
     Имя файла C:\Documents and Settings\Наташка\Рабочий стол\De_Tot_Cor - Dead Heart [EP].wav
     Пиковый уровень 98.9 %
     Скорость извлечения 3.9 X
     Качество диапазона 99.9 %
     CRC теста 970EFC44
     CRC копии 970EFC44
     Копирование... OK
Ошибок не произошло
AccurateRip: сводка
Трек  1  отсутствует в базе данных
Трек  2  отсутствует в базе данных
Трек  3  отсутствует в базе данных
Трек  4  отсутствует в базе данных
Трек  5  отсутствует в базе данных
Трек  6  отсутствует в базе данных
Трек  7  отсутствует в базе данных
Трек  8  отсутствует в базе данных
Трек  9  отсутствует в базе данных
Трек 10  отсутствует в базе данных
Трек 11  отсутствует в базе данных
Ни одного трека нет в базе AccurateRip
Конец отчёта
==== Контрольная сумма отчёта 9AA8B9E5A972CC16ED56C5DD74AD824BBBF16F9BEA3C4A33566566C625A3A3DA ====
Правила, инструкции, FAQ!!!
Торрент  Добавлен [26 июн 2020, 17:19] Скачать торрент Магнет ссылка
Скачать торрент
[ Размер 16 КБ / Просмотров 12 ]

Статус
Проверен 
 
Размер  387.78 МБ
Приватный: Нет (DHT включён)
.torrent скачан  0
 


     Отправить личное сообщение
   
Страница 1 из 1
Показать сообщения за:  Поле сортировки  
Начать новую тему Ответить на тему


Сейчас этот форум просматривают: нет зарегистрированных пользователей и гости: 0


Вы не можете начинать темы
Вы не можете отвечать на сообщения
Вы не можете редактировать свои сообщения
Вы не можете удалять свои сообщения
Вы не можете добавлять вложения

Перейти:  
cron