Начать новую тему Ответить на тему
Статистика раздачи
Размер: 492.94 МБ | Добавлен: 26 июн 2020, 17:09 | Скачали: 0
Сидеров: 0  [0 байт/сек]    Личеров: 0  [0 байт/сек]
Пред. тема | След. тема 

Автор
Сообщение

СообщениеДобавлено: 26 июн 2020, 17:09 

Ответить с цитатой 

The Fair Sex - Labyrinth
Жанр: EBM,Industrial
Год выпуска диска: 1995
Производитель диска: US
Аудио кодек: FLAC
Тип рипа: image+.cue
Битрейт аудио: lossless
Продолжительность:74:23
Трэклист:
1.White Noise - 4:14
2.Electronic New Self - 5:04
3.Cyberite - 4:57
4.Mother Restless - 4:20
5.You Know How - 4:24
6.Madadonia - 4:39
7.White World Wanker - 5:09
8.The Tide Is Turning - 1:15
9.Run And Hide - 5:06
10.Sister Anger - 5:39
11.Miss Dissatisfied - 4:08
12.Get Lost - 5:45
13.In The Desert - 5:34
14.Epilogue - 0:34
15.Electronic New Self (Electronic Spass Mix) - 8:04
16.White Noise (Pure Joy Mix) - 4:58
Доп. информация:
Код:
Exact Audio Copy V0.99 prebeta 4 from 23. January 2008
EAC extraction logfile from 26. November 2009, 22:05
The Fair Sex / Labyrinth (Trancer's Quest)
Used drive  : ASUS    DRW-1608P2   Adapter: 1  ID: 1
Read mode               : Secure
Utilize accurate stream : Yes
Defeat audio cache      : Yes
Make use of C2 pointers : No
Read offset correction                      : 48
Overread into Lead-In and Lead-Out          : No
Fill up missing offset samples with silence : Yes
Delete leading and trailing silent blocks   : No
Null samples used in CRC calculations       : Yes
Used interface                              : Native Win32 interface for Win NT & 2000
Used output format : Internal WAV Routines
Sample format      : 44.100 Hz; 16 Bit; Stereo
TOC of the extracted CD
     Track |   Start  |  Length  | Start sector | End sector
    ---------------------------------------------------------
        1  |  0:00.00 |  4:15.15 |         0    |    19139
        2  |  4:15.15 |  5:07.22 |     19140    |    42186
        3  |  9:22.37 |  4:57.63 |     42187    |    64524
        4  | 14:20.25 |  4:23.05 |     64525    |    84254
        5  | 18:43.30 |  4:26.17 |     84255    |   104221
        6  | 23:09.47 |  4:40.00 |    104222    |   125221
        7  | 27:49.47 |  5:09.68 |    125222    |   148464
        8  | 32:59.40 |  1:16.45 |    148465    |   154209
        9  | 34:16.10 |  5:09.02 |    154210    |   177386
       10  | 39:25.12 |  5:41.15 |    177387    |   202976
       11  | 45:06.27 |  4:11.05 |    202977    |   221806
       12  | 49:17.32 |  5:45.28 |    221807    |   247709
       13  | 55:02.60 |  5:34.50 |    247710    |   272809
       14  | 60:37.35 |  0:38.20 |    272810    |   275679
       15  | 61:15.55 |  8:06.22 |    275680    |   312151
       16  | 69:22.02 |  5:01.00 |    312152    |   334726
Range status and errors
Selected range
     Filename D:\MUSIC\The Fair Sex - Labyrinth (Trancer's Quest).wav
     Peak level 99.5 %
     Range quality 100.0 %
     Test CRC 44EF19FD
     Copy CRC 44EF19FD
     Copy OK
No errors occurred
AccurateRip summary
Track  1  cannot be verified as accurate (confidence 1)  [A211478D], AccurateRip returned [2A4A8F23]
Track  2  cannot be verified as accurate (confidence 1)  [25C36B65], AccurateRip returned [EBD31851]
Track  3  cannot be verified as accurate (confidence 1)  [C204E68C], AccurateRip returned [70067FC0]
Track  4  cannot be verified as accurate (confidence 1)  [A457C229], AccurateRip returned [BB488C2F]
Track  5  cannot be verified as accurate (confidence 1)  [AA1BF01E], AccurateRip returned [DC523594]
Track  6  cannot be verified as accurate (confidence 1)  [3D390B63], AccurateRip returned [7CD7AACF]
Track  7  cannot be verified as accurate (confidence 1)  [759C3B48], AccurateRip returned [F2E6746A]
Track  8  cannot be verified as accurate (confidence 1)  [8CF6EF6B], AccurateRip returned [BA47BFA9]
Track  9  cannot be verified as accurate (confidence 1)  [75C1EB17], AccurateRip returned [8ECC64B1]
Track 10  cannot be verified as accurate (confidence 1)  [E6D08AD9], AccurateRip returned [2E864D41]
Track 11  cannot be verified as accurate (confidence 1)  [C366AB72], AccurateRip returned [D1DAC0EA]
Track 12  cannot be verified as accurate (confidence 1)  [2970B836], AccurateRip returned [5D221332]
Track 13  cannot be verified as accurate (confidence 1)  [10E689AB], AccurateRip returned [6EB19B21]
Track 14  cannot be verified as accurate (confidence 1)  [5ED9D8C9], AccurateRip returned [E339541D]
Track 15  cannot be verified as accurate (confidence 1)  [59C00E2A], AccurateRip returned [102211CA]
Track 16  cannot be verified as accurate (confidence 1)  [9AA5E1DE], AccurateRip returned [726AC476]
No tracks could be verified as accurate
You may have a different pressing from the one(s) in the database
End of status report
Правила, инструкции, FAQ!!!
Торрент  Добавлен [26 июн 2020, 17:09] Скачать торрент Магнет ссылка
Скачать торрент
[ Размер 19.91 КБ / Просмотров 4 ]

Статус
Проверен 
 
Размер  492.94 МБ
Приватный: Нет (DHT включён)
.torrent скачан  0
 


     Отправить личное сообщение
   
Страница 1 из 1
Показать сообщения за:  Поле сортировки  
Начать новую тему Ответить на тему


Сейчас этот форум просматривают: нет зарегистрированных пользователей и гости: 0


Вы не можете начинать темы
Вы не можете отвечать на сообщения
Вы не можете редактировать свои сообщения
Вы не можете удалять свои сообщения
Вы не можете добавлять вложения

Перейти:  
cron