Начать новую тему Ответить на тему
Статистика раздачи
Размер: 330.68 МБ | Добавлен: 26 июн 2020, 19:14 | Скачали: 0
Сидеров: 1  [0 байт/сек]    Личеров: 0  [0 байт/сек]
Пред. тема | След. тема 

Автор
Сообщение

СообщениеДобавлено: 26 июн 2020, 19:14 

Ответить с цитатой 

THE FAIR SEX - Demented Forms
Жанр: EBM,Industrial
Год выпуска диска: 1989
Производитель диска: Germany
Аудио кодек: FLAC
Тип рипа: image+.cue
Битрейт аудио: lossless
Продолжительность: 50:58
Трэклист:
1.The Naked And The Dead (5:16)
2.Disaster (5:23)
3.No Excuse (4:44)
4.What The Devil (4:55)
5.Ashes (3:27)
6.Helpless Fall (4:23)
7.Boredom Kills (3:38)
8.The Wild Ones Fade (5:28)
9.The Odour Of Rottenness (1:46)
10.No Way Out (Rough Way Version) (6:28)
11.Atrocity (5:02)
Доп. информация:
Код:
Exact Audio Copy V0.99 prebeta 4 from 23. January 2008
EAC extraction logfile from 21. May 2010, 16:49
The Fair Sex / Demented Forms
Used drive  : ASUS    DRW-1608P2   Adapter: 1  ID: 1
Read mode               : Secure
Utilize accurate stream : Yes
Defeat audio cache      : Yes
Make use of C2 pointers : No
Read offset correction                      : 48
Overread into Lead-In and Lead-Out          : No
Fill up missing offset samples with silence : Yes
Delete leading and trailing silent blocks   : No
Null samples used in CRC calculations       : Yes
Used interface                              : Native Win32 interface for Win NT & 2000
Used output format : Internal WAV Routines
Sample format      : 44.100 Hz; 16 Bit; Stereo
TOC of the extracted CD
     Track |   Start  |  Length  | Start sector | End sector
    ---------------------------------------------------------
        1  |  0:00.00 |  5:20.00 |         0    |    23999
        2  |  5:20.00 |  5:24.72 |     24000    |    48371
        3  | 10:44.72 |  4:47.50 |     48372    |    69946
        4  | 15:32.47 |  4:57.70 |     69947    |    92291
        5  | 20:30.42 |  3:31.50 |     92292    |   108166
        6  | 24:02.17 |  4:24.18 |    108167    |   127984
        7  | 28:26.35 |  3:39.67 |    127985    |   144476
        8  | 32:06.27 |  5:31.10 |    144477    |   169311
        9  | 37:37.37 |  1:47.13 |    169312    |   177349
       10  | 39:24.50 |  6:30.50 |    177350    |   206649
       11  | 45:55.25 |  5:02.72 |    206650    |   229371
Range status and errors
Selected range
     Filename D:\Downloads\The Fair Sex - Demented Forms.wav
     Peak level 87.9 %
     Range quality 99.9 %
     Test CRC 76955F71
     Copy CRC 76955F71
     Copy OK
No errors occurred
AccurateRip summary
Track  1  cannot be verified as accurate (confidence 3)  [17858377], AccurateRip returned [7133850A]
Track  2  cannot be verified as accurate (confidence 3)  [02E814B6], AccurateRip returned [0BBE4893]
Track  3  cannot be verified as accurate (confidence 3)  [28B6BB9E], AccurateRip returned [A23F63B9]
Track  4  cannot be verified as accurate (confidence 3)  [E37A871B], AccurateRip returned [F5BD176F]
Track  5  cannot be verified as accurate (confidence 3)  [700F001F], AccurateRip returned [C507E23E]
Track  6  cannot be verified as accurate (confidence 3)  [D888E5F6], AccurateRip returned [53D1639F]
Track  7  cannot be verified as accurate (confidence 3)  [B0E73719], AccurateRip returned [10C16825]
Track  8  cannot be verified as accurate (confidence 3)  [935959FE], AccurateRip returned [A1BAA4CE]
Track  9  cannot be verified as accurate (confidence 3)  [23579878], AccurateRip returned [E224177F]
Track 10  cannot be verified as accurate (confidence 3)  [C9389B03], AccurateRip returned [64BB8E9D]
Track 11  cannot be verified as accurate (confidence 3)  [2039BE2C], AccurateRip returned [83DE4AB6]
No tracks could be verified as accurate
You may have a different pressing from the one(s) in the database
End of status report
Код:
AUDIOCHECKER v2.0 beta (build 457) - by Dester - opdester@freemail.hu
~~~~~~~~~~~~~~~~~~~~~~~~~~~~~~~~~~
Started at: ïåòúê, 21. 05. 2010. - 16:50.51
1 file found
1 -===- D:\Downloads\The Fair Sex - Demented Forms.wav
  Conclusion: this track is CDDA with probability 100%
Finished at: ïåòúê, 21. 05. 2010. - 16:58.35 (operation time: 0:07.44)
Правила, инструкции, FAQ!!!
Торрент  Добавлен [26 июн 2020, 19:14] Скачать торрент Магнет ссылка
Скачать торрент
[ Размер 13.54 КБ / Просмотров 9 ]

Статус
Проверен 
 
Размер  330.68 МБ
Приватный: Нет (DHT включён)
.torrent скачан  0
 


     Отправить личное сообщение
   
Страница 1 из 1
Показать сообщения за:  Поле сортировки  
Начать новую тему Ответить на тему


Сейчас этот форум просматривают: нет зарегистрированных пользователей и гости: 0


Вы не можете начинать темы
Вы не можете отвечать на сообщения
Вы не можете редактировать свои сообщения
Вы не можете удалять свои сообщения
Вы не можете добавлять вложения

Перейти:  
cron
cron