Начать новую тему Ответить на тему
Статистика раздачи
Размер: 542.33 МБ | Добавлен: 26 июн 2020, 16:57 | Скачали: 0
Сидеров: 0  [0 байт/сек]    Личеров: 0  [0 байт/сек]
Пред. тема | След. тема 

Автор
Сообщение

СообщениеДобавлено: 26 июн 2020, 16:57 

Ответить с цитатой 

The Eternal Afflict / Re(a)lict Or Requiem
Жанр: EBM, Industrial
Страна-производитель диска: Germany
Год издания диска: 2006
Издатель (лейбл): Scanner
Номер по каталогу: SCAN 052
Страна: Germany
Аудио кодек: FLAC (*.flac)
Тип рипа: image+.cue
Битрейт аудио: lossless
Продолжительность: 1:18:58
Источник (релизер): CD-R
Наличие сканов в содержимом раздачи: нет
Треклист:
1 Oh, You in Heaven [Acoustic Version] 4:42
2 Agony, I Like 4:27
3 San Diego (The Tragical) 6:34
4 Paint It Black ['92 Version] 4:25
5 We Libanon You 3:52
6 Kinski Is Dead 3:50
7 Langsam Fallt der Regen 5:03
8 Trauma Rouge... 5:55
9 Jahweh Koresh 4:23
10 War Child 4:38
11 Childhood 4:47
12 Sacred War Machine 4:07
13 Fallen Angel 4:27
14 Babylon 3:35
15 Closer to the Garden 4:51
16 Perfect Future World 3:54
17 Euphoric & Demonic
Код:
Exact Audio Copy V0.99 prebeta 5 from 4. May 2009
Отчёт EAC об извлечении, выполненном 6. апреля 2011, 23:21
The Eternal Afflict / Re(a)lict Or Requiem
Дисковод: _NEC    DVD_RW ND-4550A   Adapter: 0  ID: 2
Режим чтения                 : Достоверность
Использование точного потока : Да
Отключение кэша аудио        : Да
Использование указателей C2  : Нет
Коррекция смещения при чтении                     : 48
Способность читать области Lead-in и Lead-out     : Нет
Заполнение пропущенных сэмплов тишиной            : Да
Удаление блоков с тишиной в начале и конце        : Нет
При вычислениях CRC использовались нулевые сэмплы : Да
Интерфейс                                         : Встроенный Win32-интерфейс для Win NT/2000
Выходной формат : Внутренние WAV-операции
Формат сэмплов  : 44.100 Гц; 16 бит; стерео
TOC извлечённого CD
     Трек |   Старт  | Длительность | Начальный сектор | Конечный сектор
    ---------------------------------------------------------------------
       1  |  0:00.00 |    4:42.51   |           0      |      21200
       2  |  4:42.51 |    4:27.30   |       21201      |      41255
       3  |  9:10.06 |    6:34.07   |       41256      |      70812
       4  | 15:44.13 |    4:25.37   |       70813      |      90724
       5  | 20:09.50 |    3:52.62   |       90725      |     108186
       6  | 24:02.37 |    3:50.01   |      108187      |     125437
       7  | 27:52.38 |    5:03.07   |      125438      |     148169
       8  | 32:55.45 |    5:55.51   |      148170      |     174845
       9  | 38:51.21 |    4:23.34   |      174846      |     194604
      10  | 43:14.55 |    4:38.53   |      194605      |     215507
      11  | 47:53.33 |    4:47.18   |      215508      |     237050
      12  | 52:40.51 |    4:07.70   |      237051      |     255645
      13  | 56:48.46 |    4:27.51   |      255646      |     275721
      14  | 61:16.22 |    3:35.12   |      275722      |     291858
      15  | 64:51.34 |    4:51.09   |      291859      |     313692
      16  | 69:42.43 |    3:54.07   |      313693      |     331249
      17  | 73:36.50 |    5:21.15   |      331250      |     355339
Характеристики диапазона извлечения и сообщения об ошибках
Выбранный диапазон
     Имя файла D:\Music\The Eternal Afflict - ReAlict Or Requiem (2006)\The Eternal Afflict - Re(a)lict Or Requiem.wav
     Пиковый уровень 99.2 %
     Качество диапазона 99.9 %
     CRC теста 2076956F
     CRC копии 2076956F
     Копирование... OK
Ошибок не произошло
AccurateRip: сводка
Трек  1  нет в базе данных
Трек  2  нет в базе данных
Трек  3  нет в базе данных
Трек  4  нет в базе данных
Трек  5  нет в базе данных
Трек  6  нет в базе данных
Трек  7  нет в базе данных
Трек  8  нет в базе данных
Трек  9  нет в базе данных
Трек 10  нет в базе данных
Трек 11  нет в базе данных
Трек 12  нет в базе данных
Трек 13  нет в базе данных
Трек 14  нет в базе данных
Трек 15  нет в базе данных
Трек 16  нет в базе данных
Трек 17  нет в базе данных
Ни одного трека нет в базе AccurateRip
Конец отчёта
Код:
REM GENRE Industrial
REM DATE 2006
REM DISCID 08128111
REM COMMENT "ExactAudioCopy v0.99pb5"
PERFORMER "The Eternal Afflict"
TITLE "Re(a)lict Or Requiem"
FILE "The Eternal Afflict - Re(a)lict Or Requiem.wav" WAVE
  TRACK 01 AUDIO
    TITLE "Oh, You in Heaven [Acoustic Version]"
    PERFORMER "The Eternal Afflict"
    INDEX 01 00:00:00
  TRACK 02 AUDIO
    TITLE "Agony, I Like"
    PERFORMER "The Eternal Afflict"
    INDEX 01 04:42:51
  TRACK 03 AUDIO
    TITLE "San Diego (The Tragical)"
    PERFORMER "The Eternal Afflict"
    INDEX 01 09:10:06
  TRACK 04 AUDIO
    TITLE "Paint It Black ['92 Version]"
    PERFORMER "The Eternal Afflict"
    INDEX 01 15:44:13
  TRACK 05 AUDIO
    TITLE "We Libanon You"
    PERFORMER "The Eternal Afflict"
    INDEX 01 20:09:50
  TRACK 06 AUDIO
    TITLE "Kinski Is Dead"
    PERFORMER "The Eternal Afflict"
    INDEX 01 24:02:37
  TRACK 07 AUDIO
    TITLE "Langsam Fallt der Regen"
    PERFORMER "The Eternal Afflict"
    INDEX 01 27:52:38
  TRACK 08 AUDIO
    TITLE "Trauma Rouge..."
    PERFORMER "The Eternal Afflict"
    INDEX 01 32:55:45
  TRACK 09 AUDIO
    TITLE "Jahweh Koresh"
    PERFORMER "The Eternal Afflict"
    INDEX 01 38:51:21
  TRACK 10 AUDIO
    TITLE "War Child"
    PERFORMER "The Eternal Afflict"
    INDEX 01 43:14:55
  TRACK 11 AUDIO
    TITLE "Childhood"
    PERFORMER "The Eternal Afflict"
    INDEX 01 47:53:33
  TRACK 12 AUDIO
    TITLE "Sacred War Machine"
    PERFORMER "The Eternal Afflict"
    INDEX 01 52:40:51
  TRACK 13 AUDIO
    TITLE "Fallen Angel"
    PERFORMER "The Eternal Afflict"
    INDEX 01 56:48:46
  TRACK 14 AUDIO
    TITLE "Babylon"
    PERFORMER "The Eternal Afflict"
    INDEX 01 61:16:22
  TRACK 15 AUDIO
    TITLE "Closer to the Garden"
    PERFORMER "The Eternal Afflict"
    INDEX 01 64:51:34
  TRACK 16 AUDIO
    TITLE "Perfect Future World"
    PERFORMER "The Eternal Afflict"
    INDEX 01 69:42:43
  TRACK 17 AUDIO
    TITLE "Euphoric & Demonic"
    PERFORMER "The Eternal Afflict"
    INDEX 01 73:36:50
Код:
Started at: среда, 06. 04. 2011. - 23:27.47
1 file found
1 -===- D:\Music\The Eternal Afflict - ReAlict Or Requiem (2006)\The Eternal Afflict - Re(a)lict Or Requiem.wav
  Conclusion: this track is CDDA with probability 100%
Finished at: среда, 06. 04. 2011. - 23:37.40 (operation time: 0:09.53)
Сборник ремастированных треков разных лет.
Правила, инструкции, FAQ!!!
Торрент  Добавлен [26 июн 2020, 16:57] Скачать торрент Магнет ссылка
Скачать торрент
[ Размер 11.32 КБ / Просмотров 4 ]

Статус
Проверен 
 
Размер  542.33 МБ
Приватный: Нет (DHT включён)
.torrent скачан  0
 


     Отправить личное сообщение
   
Страница 1 из 1
Показать сообщения за:  Поле сортировки  
Начать новую тему Ответить на тему


Сейчас этот форум просматривают: нет зарегистрированных пользователей и гости: 0


Вы не можете начинать темы
Вы не можете отвечать на сообщения
Вы не можете редактировать свои сообщения
Вы не можете удалять свои сообщения
Вы не можете добавлять вложения

Перейти:  
cron