Начать новую тему Ответить на тему
Статистика раздачи
Размер: 422.53 МБ | Добавлен: 26 июн 2020, 16:57 | Скачали: 0
Сидеров: 0  [0 байт/сек]    Личеров: 0  [0 байт/сек]
Пред. тема | След. тема 

Автор
Сообщение

СообщениеДобавлено: 26 июн 2020, 16:57 

Ответить с цитатой 

The Eternal Afflict / Euphoric & Demonic (2005) (CD2 Ltd Rmx)
Жанр: EBM, Industrial
Страна-производитель диска: Germany
Год издания диска: 2005
Издатель (лейбл): Scanner
Номер по каталогу: SC 045L
Страна: Germany
Аудио кодек: FLAC (*.flac)
Тип рипа: image+.cue
Битрейт аудио: lossless
Продолжительность: 00:57:52
Источник (релизер): CD-R
Наличие сканов в содержимом раздачи: нет
Треклист:
1. Euphoric & demonic (Rotersand's Racing Ride)
2. The riot in cellblock 666 (Upraor - Remix by X-Fusion)
3. Euphoric & demonic (Demonic Mix by Clan Of Xymox)
4. Red blooded eternity (Dust Of Basement)
5. Isolation comes 2004 (Tim Schuldt Feat. D-Foundation)
6. The riot in cellblock 666 (Fair Sex)
7. Euphoric & demonic (On The Roxx By Sara Noxx)
8. The riot in cellblock 666 (Xotox)
9. Euphoric & demonic (Digital Harmony Mix by Technoir)
10. Babylon (Burn it down - Mix)
11. Euphoric & demonic (The Eternal Sex)
12. Black hole sun (Barbie Q. - Mix by The Eternal Afflict)
13. Purgatory (Gateway To Hell - Mix by Inside)
Код:
Exact Audio Copy V0.99 prebeta 5 from 4. May 2009
Отчёт EAC об извлечении, выполненном 6. апреля 2011, 21:53
The Eternal Afflict / Euphoric And Demonic (Lmt. CD2)
Дисковод: _NEC    DVD_RW ND-4550A   Adapter: 0  ID: 2
Режим чтения                 : Достоверность
Использование точного потока : Да
Отключение кэша аудио        : Да
Использование указателей C2  : Нет
Коррекция смещения при чтении                     : 48
Способность читать области Lead-in и Lead-out     : Нет
Заполнение пропущенных сэмплов тишиной            : Да
Удаление блоков с тишиной в начале и конце        : Нет
При вычислениях CRC использовались нулевые сэмплы : Да
Интерфейс                                         : Встроенный Win32-интерфейс для Win NT/2000
Выходной формат : Внутренние WAV-операции
Формат сэмплов  : 44.100 Гц; 16 бит; стерео
TOC извлечённого CD
     Трек |   Старт  | Длительность | Начальный сектор | Конечный сектор
    ---------------------------------------------------------------------
       1  |  0:00.00 |    7:24.72   |           0      |      33371
       2  |  7:24.72 |    3:20.16   |       33372      |      48387
       3  | 10:45.13 |    5:27.21   |       48388      |      72933
       4  | 16:12.34 |    4:27.15   |       72934      |      92973
       5  | 20:39.49 |    4:43.68   |       92974      |     114266
       6  | 25:23.42 |    3:25.13   |      114267      |     129654
       7  | 28:48.55 |    3:50.69   |      129655      |     146973
       8  | 32:39.49 |    3:44.63   |      146974      |     163836
       9  | 36:24.37 |    4:13.21   |      163837      |     182832
      10  | 40:37.58 |    3:43.43   |      182833      |     199600
      11  | 44:21.26 |    3:29.21   |      199601      |     215296
      12  | 47:50.47 |    5:16.52   |      215297      |     239048
      13  | 53:07.24 |    4:44.45   |      239049      |     260393
Характеристики диапазона извлечения и сообщения об ошибках
Выбранный диапазон
     Имя файла D:\Music\The Eternal Afflict - Euphoric & Demonic (2005) (CD2 Ltd Rmx)\The Eternal Afflict - Euphoric And Demonic (Lmt. CD2).wav
     Пиковый уровень 98.8 %
     Качество диапазона 100.0 %
     CRC теста 33FDF87D
     CRC копии 33FDF87D
     Копирование... OK
Ошибок не произошло
AccurateRip: сводка
Трек  1  нет в базе данных
Трек  2  нет в базе данных
Трек  3  нет в базе данных
Трек  4  нет в базе данных
Трек  5  нет в базе данных
Трек  6  нет в базе данных
Трек  7  нет в базе данных
Трек  8  нет в базе данных
Трек  9  нет в базе данных
Трек 10  нет в базе данных
Трек 11  нет в базе данных
Трек 12  нет в базе данных
Трек 13  нет в базе данных
Ни одного трека нет в базе AccurateRip
Конец отчёта
Код:
REM DATE 2005
REM DISCID C20D8F0D
REM COMMENT "ExactAudioCopy v0.99pb5"
PERFORMER "The Eternal Afflict"
TITLE "Euphoric And Demonic (Lmt. CD2)"
FILE "The Eternal Afflict - Euphoric And Demonic (Lmt. CD2).wav" WAVE
  TRACK 01 AUDIO
    TITLE "Euphoric And Demonic  (Rotersandґs Racing Ride) - Roter Sand"
    PERFORMER "The Eternal Afflict"
    INDEX 01 00:00:00
  TRACK 02 AUDIO
    TITLE "Riot In Cellblock 666 (Uproar - Remix) - X-Fusion"
    PERFORMER "The Eternal Afflict"
    INDEX 01 07:24:72
  TRACK 03 AUDIO
    TITLE "Euphoric And Demonic (Demonic Mix) - Ronny Moorings (Clan of Cymox)"
    PERFORMER "The Eternal Afflict"
    INDEX 01 10:45:13
  TRACK 04 AUDIO
    TITLE "Red Blooded Eternity - Dust Of Basement"
    PERFORMER "The Eternal Afflict"
    INDEX 01 16:12:34
  TRACK 05 AUDIO
    TITLE "Isolation Comes 2004 - Tim Schuldt Feat. D-Foundation"
    PERFORMER "The Eternal Afflict"
    INDEX 01 20:39:49
  TRACK 06 AUDIO
    TITLE "Riot In Cellblock 666 - The Fair Sex"
    PERFORMER "The Eternal Afflict"
    INDEX 01 25:23:42
  TRACK 07 AUDIO
    TITLE "Euphoric And Demonic (On The Roxx By Noxx - Sara Noxx"
    PERFORMER "The Eternal Afflict"
    INDEX 01 28:48:55
  TRACK 08 AUDIO
    TITLE "Riot In Cellblock 666 - Xotox"
    PERFORMER "The Eternal Afflict"
    INDEX 01 32:39:49
  TRACK 09 AUDIO
    TITLE "Euphoric And Demonic (Digital Harmony Mix) - Technoir"
    PERFORMER "The Eternal Afflict"
    INDEX 01 36:24:37
  TRACK 10 AUDIO
    TITLE "Bybylon (Burn It Down - Mix) - German Art"
    PERFORMER "The Eternal Afflict"
    INDEX 01 40:37:58
  TRACK 11 AUDIO
    TITLE "Euphoric And Demonic - The Eternal Sex"
    PERFORMER "The Eternal Afflict"
    INDEX 01 44:21:26
  TRACK 12 AUDIO
    TITLE "Black Hole Sun (Barbie Q. - Mix) - The Eternal Afflict"
    PERFORMER "The Eternal Afflict"
    INDEX 01 47:50:47
  TRACK 13 AUDIO
    TITLE "Purgatory (Gateway To Hell - Mix) - Inside"
    PERFORMER "The Eternal Afflict"
    INDEX 01 53:07:24
Код:
Started at: среда, 06. 04. 2011. - 21:54.40
1 file found
1 -===- D:\Music\The Eternal Afflict - Euphoric & Demonic (2005) (CD2 Ltd Rmx)\The Eternal Afflict - Euphoric And Demonic (Lmt. CD2).wav
  Conclusion: this track is CDDA with probability 100%
Finished at: среда, 06. 04. 2011. - 22:02.11 (operation time: 0:07.31)
Второй диск c ремиксами из лимитированого издания альбома "Euphoric & Demoniс" 2005 года.
Правила, инструкции, FAQ!!!
Торрент  Добавлен [26 июн 2020, 16:57] Скачать торрент Магнет ссылка
Скачать торрент
[ Размер 17.28 КБ / Просмотров 2 ]

Статус
Проверен 
 
Размер  422.53 МБ
Приватный: Нет (DHT включён)
.torrent скачан  0
 


     Отправить личное сообщение
   
Страница 1 из 1
Показать сообщения за:  Поле сортировки  
Начать новую тему Ответить на тему


Сейчас этот форум просматривают: нет зарегистрированных пользователей и гости: 0


Вы не можете начинать темы
Вы не можете отвечать на сообщения
Вы не можете редактировать свои сообщения
Вы не можете удалять свои сообщения
Вы не можете добавлять вложения

Перейти:  
cron