Начать новую тему Ответить на тему
Статистика раздачи
Размер: 280.05 МБ | Добавлен: 26 июн 2020, 17:52 | Скачали: 0
Сидеров: 0  [0 байт/сек]    Личеров: 0  [0 байт/сек]
Пред. тема | След. тема 

Автор
Сообщение

СообщениеДобавлено: 26 июн 2020, 17:52 

Ответить с цитатой 

The Dust Of Basement - Re-Membrances 1998
Жанр: EBM, Industrial
Год выпуска диска: 1998
Производитель диска: Германия
Аудио кодек: APE
Тип рипа: image+.cue
Битрейт аудио: lossless
Продолжительность: 00:48:08
Трэклист:
01.Lullaby / The Morphing
02.God's Own Fairytales
03.Amok
04.Trust
05.Genocide
06.Over You
07.Request On Dreams
08.Dreams of Persecution
09.Gift / The MS20 Project
10.Lullaby
11.Lullaby / Panic Remix
Код:
Exact Audio Copy V0.99 prebeta 5 from 4. May 2009
Отчёт EAC об извлечении, выполненном 25. июля 2009, 19:14
The Dust of Basement / Re-Membrances 1998
Дисковод: Optiarc DVD RW AD-7201S   Adapter: 1  ID: 1
Режим чтения                 : Достоверность
Использование точного потока : Да
Отключение кэша аудио        : Да
Использование указателей C2  : Нет
Коррекция смещения при чтении                     : 48
Способность читать области Lead-in и Lead-out     : Нет
Заполнение пропущенных сэмплов тишиной            : Да
Удаление блоков с тишиной в начале и конце        : Нет
При вычислениях CRC использовались нулевые сэмплы : Да
Интерфейс                                         : Установленный внешний ASPI-интерфейс
Выходной формат          : Monkey's Audio (без потерь)
Выбранный битрейт        : Fast Lossless Compression
Качество                 : Высокий
Добавление ID3-тэга      : Нет
Утилита сжатия           : D:\Program Files\Monkey's Audio\Monkey's Audio.exe
TOC извлечённого CD
     Трек |   Старт  | Длительность | Начальный сектор | Конечный сектор
    ---------------------------------------------------------------------
       1  |  0:00.00 |    2:56.59   |           0      |      13258
       2  |  2:56.59 |    5:28.71   |       13259      |      37929
       3  |  8:25.55 |    4:49.35   |       37930      |      59639
       4  | 13:15.15 |    5:06.16   |       59640      |      82605
       5  | 18:21.31 |    3:57.69   |       82606      |     100449
       6  | 22:19.25 |    4:33.42   |      100450      |     120966
       7  | 26:52.67 |    4:09.27   |      120967      |     139668
       8  | 31:02.19 |    4:10.48   |      139669      |     158466
       9  | 35:12.67 |    3:34.71   |      158467      |     174587
      10  | 38:47.63 |    4:52.13   |      174588      |     196500
      11  | 43:40.01 |    4:28.10   |      196501      |     216610
Характеристики диапазона извлечения и сообщения об ошибках
Выбранный диапазон
     Имя файла D:\Documents and Settings\Rodexx\Рабочий стол\The Dust Of Basement - Re-Membrances 1998\The Dust of Basement - Re-Membrances 1998.wav
     Пиковый уровень 100.0 %
     Качество диапазона 100.0 %
     CRC теста F04307E6
     CRC копии F04307E6
     Копирование... OK
Ошибок не произошло
Конец отчёта
Label: Matrix Cube, Trinity
Catalog#: TRI 012 CD, TRI 012 CD
Format: CD
Country: Germany
Released: 1998
Genre: Electronic
Style: EBM, Industrial

Правила, инструкции, FAQ!!!
Торрент  Добавлен [26 июн 2020, 17:52] Скачать торрент Магнет ссылка
Скачать торрент
[ Размер 11.74 КБ / Просмотров 10 ]

Статус
Проверен 
 
Размер  280.05 МБ
Приватный: Нет (DHT включён)
.torrent скачан  0
 


     Отправить личное сообщение
   
Страница 1 из 1
Показать сообщения за:  Поле сортировки  
Начать новую тему Ответить на тему


Сейчас этот форум просматривают: нет зарегистрированных пользователей и гости: 0


Вы не можете начинать темы
Вы не можете отвечать на сообщения
Вы не можете редактировать свои сообщения
Вы не можете удалять свои сообщения
Вы не можете добавлять вложения

Перейти:  
cron