Начать новую тему Ответить на тему
Статистика раздачи
Размер: 450.08 МБ | Добавлен: 26 июн 2020, 17:01 | Скачали: 0
Сидеров: 0  [0 байт/сек]    Личеров: 0  [0 байт/сек]
Пред. тема | След. тема 

Автор
Сообщение

СообщениеДобавлено: 26 июн 2020, 17:01 

Ответить с цитатой 

THD (Total Harmonic Distortion) - Outside In
Жанр: EBM, Industrial
Год выпуска диска: 1995
Производитель диска: US
Аудио кодек: FLAC
Тип рипа: tracks+.cue
Продолжительность: 1:06:07
Трэклист:
[05:09] 01. Outside In
[06:48] 02. Master Chemist
[06:35] 03. Corpsegrinder
[02:29] 04. Modern Rituals
[06:14] 05. Apathy
[03:31] 06. Lo Tek Terrorists
[01:42] 07. Atom Pulse
[05:30] 08. Harbringer
[05:05] 09. Release
[03:44] 10. Can We Trade Our Souls
[06:09] 11. Serial Port Killers
[03:56] 12. Welcome to Tomorrow
[03:20] 13. Beat Box City (Parts 1+2)
[05:50] 14. Robotika
Exact Audio Copy V0.99 prebeta 4 from 23. January 2008
EAC extraction logfile from 8. May 2009, 15:51
THD / Outside In
Used drive : PBDS CD-ROM DH-48N1P Adapter: 0 ID: 0
Read mode : Secure
Utilize accurate stream : Yes
Defeat audio cache : Yes
Make use of C2 pointers : No
Read offset correction : 6
Overread into Lead-In and Lead-Out : No
Fill up missing offset samples with silence : Yes
Delete leading and trailing silent blocks : No
Null samples used in CRC calculations : No
Used interface : Native Win32 interface for Win NT & 2000
Gap handling : Appended to previous track
Used output format : User Defined Encoder
Selected bitrate : 128 kBit/s
Quality : High
Add ID3 tag : No
Command line compressor : D:\Exact Audio Copy\Flac\flac.exe
Additional command line options : -V -8 -T "artist=%a" -T "title=%t" -T "album=%g" -T "date=%y" -T "tracknumber=%n" -T "genre=%m" %s
TOC of the extracted CD
Track | Start | Length | Start sector | End sector
---------------------------------------------------------
1 | 0:00.30 | 5:13.00 | 30 | 23504
2 | 5:13.30 | 6:51.73 | 23505 | 54402
3 | 12:05.28 | 6:39.03 | 54403 | 84330
4 | 18:44.31 | 2:32.56 | 84331 | 95786
5 | 21:17.12 | 6:14.16 | 95787 | 123852
6 | 27:31.28 | 3:34.74 | 123853 | 139976
7 | 31:06.27 | 1:45.48 | 139977 | 147899
8 | 32:52.00 | 5:33.38 | 147900 | 172912
9 | 38:25.38 | 5:08.42 | 172913 | 196054
10 | 43:34.05 | 3:47.47 | 196055 | 213126
11 | 47:21.52 | 6:12.51 | 213127 | 241077
12 | 53:34.28 | 4:00.19 | 241078 | 259096
13 | 57:34.47 | 3:23.39 | 259097 | 274360
14 | 60:58.11 | 5:50.40 | 274361 | 300650
Track 1
Filename D:\mp3\thd - outside in flac\THD - Outside In - 01 - Outside In.wav
Pre-gap length 0:00:02.30
Peak level 100.0 %
Track quality 100.0 %
Test CRC 2B41653D
Copy CRC 2B41653D
Accurately ripped (confidence 6) [1B08A420]
Copy OK
Track 2
Filename D:\mp3\thd - outside in flac\THD - Outside In - 02 - Master Chemist.wav
Pre-gap length 0:00:03.29
Peak level 100.0 %
Track quality 100.0 %
Test CRC 6D819792
Copy CRC 6D819792
Accurately ripped (confidence 6) [72E4CEC8]
Copy OK
Track 3
Filename D:\mp3\thd - outside in flac\THD - Outside In - 03 - Corpsegrinder.wav
Pre-gap length 0:00:03.28
Peak level 100.0 %
Track quality 100.0 %
Test CRC E19738BA
Copy CRC E19738BA
Accurately ripped (confidence 6) [C8DDEFD5]
Copy OK
Track 4
Filename D:\mp3\thd - outside in flac\THD - Outside In - 04 - Modern Rituals.wav
Pre-gap length 0:00:03.29
Peak level 100.0 %
Track quality 99.9 %
Test CRC FAC10F80
Copy CRC FAC10F80
Accurately ripped (confidence 6) [5122817F]
Copy OK
Track 5
Filename D:\mp3\thd - outside in flac\THD - Outside In - 05 - Apathy.wav
Pre-gap length 0:00:03.29
Peak level 100.0 %
Track quality 99.9 %
Test CRC F9586161
Copy CRC F9586161
Accurately ripped (confidence 5) [BBADBB99]
Copy OK
Track 6
Filename D:\mp3\thd - outside in flac\THD - Outside In - 06 - Lo Tek Terrorists.wav
Peak level 100.0 %
Track quality 100.0 %
Test CRC BFEED947
Copy CRC BFEED947
Accurately ripped (confidence 6) [2E44CB2F]
Copy OK
Track 7
Filename D:\mp3\thd - outside in flac\THD - Outside In - 07 - Atom Pulse.wav
Pre-gap length 0:00:03.29
Peak level 100.0 %
Track quality 100.0 %
Test CRC 6601AE34
Copy CRC 6601AE34
Accurately ripped (confidence 6) [052A8E0E]
Copy OK
Track 8
Filename D:\mp3\thd - outside in flac\THD - Outside In - 08 - Harbringer.wav
Pre-gap length 0:00:03.29
Peak level 100.0 %
Track quality 100.0 %
Test CRC 7421F543
Copy CRC 7421F543
Accurately ripped (confidence 6) [9E20DC33]
Copy OK
Track 9
Filename D:\mp3\thd - outside in flac\THD - Outside In - 09 - Release.wav
Pre-gap length 0:00:03.29
Peak level 100.0 %
Track quality 100.0 %
Test CRC C393B6F5
Copy CRC C393B6F5
Accurately ripped (confidence 6) [EBF0B5DD]
Copy OK
Track 10
Filename D:\mp3\thd - outside in flac\THD - Outside In - 10 - Can We Trade Our Souls.wav
Pre-gap length 0:00:03.29
Peak level 100.0 %
Track quality 100.0 %
Test CRC 8AE007A6
Copy CRC 8AE007A6
Accurately ripped (confidence 6) [F2AA6077]
Copy OK
Track 11
Filename D:\mp3\thd - outside in flac\THD - Outside In - 11 - Serial Port Killers.wav
Pre-gap length 0:00:03.29
Peak level 100.0 %
Track quality 100.0 %
Test CRC 9E48DE71
Copy CRC 9E48DE71
Accurately ripped (confidence 6) [5C3891A5]
Copy OK
Track 12
Filename D:\mp3\thd - outside in flac\THD - Outside In - 12 - Welcome to Tomorrow.wav
Pre-gap length 0:00:03.29
Peak level 100.0 %
Track quality 100.0 %
Test CRC 6A522C24
Copy CRC 6A522C24
Accurately ripped (confidence 6) [2DE510E1]
Copy OK
Track 13
Filename D:\mp3\thd - outside in flac\THD - Outside In - 13 - Beat Box City (Parts 1+2).wav
Pre-gap length 0:00:03.29
Peak level 100.0 %
Track quality 99.9 %
Test CRC 62762E3B
Copy CRC 62762E3B
Accurately ripped (confidence 6) [284BAABB]
Copy OK
Track 14
Filename D:\mp3\thd - outside in flac\THD - Outside In - 14 - Robotika.wav
Pre-gap length 0:00:03.29
Peak level 100.0 %
Track quality 100.0 %
Test CRC DB10BE57
Copy CRC DB10BE57
Accurately ripped (confidence 6) [D6E0C930]
Copy OK
All tracks accurately ripped
No errors occurred
End of status report
REM DISCID CC0FA80E
REM COMMENT "ExactAudioCopy v0.99pb4"
PERFORMER "THD"
TITLE "Outside In"
FILE "THD - Outside In - 01 - Outside In.wav" WAVE
TRACK 01 AUDIO
TITLE "Outside In"
PERFORMER "THD"
PREGAP 00:00:30
INDEX 01 00:00:00
TRACK 02 AUDIO
TITLE "Master Chemist"
PERFORMER "THD"
INDEX 00 05:09:46
FILE "THD - Outside In - 02 - Master Chemist.wav" WAVE
INDEX 01 00:00:00
TRACK 03 AUDIO
TITLE "Corpsegrinder"
PERFORMER "THD"
INDEX 00 06:48:45
FILE "THD - Outside In - 03 - Corpsegrinder.wav" WAVE
INDEX 01 00:00:00
TRACK 04 AUDIO
TITLE "Modern Rituals"
PERFORMER "THD"
INDEX 00 06:35:49
FILE "THD - Outside In - 04 - Modern Rituals.wav" WAVE
INDEX 01 00:00:00
TRACK 05 AUDIO
TITLE "Apathy"
PERFORMER "THD"
INDEX 00 02:29:27
FILE "THD - Outside In - 05 - Apathy.wav" WAVE
INDEX 01 00:00:00
FILE "THD - Outside In - 06 - Lo Tek Terrorists.wav" WAVE
TRACK 06 AUDIO
TITLE "Lo Tek Terrorists"
PERFORMER "THD"
INDEX 01 00:00:00
TRACK 07 AUDIO
TITLE "Atom Pulse"
PERFORMER "THD"
INDEX 00 03:31:45
FILE "THD - Outside In - 07 - Atom Pulse.wav" WAVE
INDEX 01 00:00:00
TRACK 08 AUDIO
TITLE "Harbringer"
PERFORMER "THD"
INDEX 00 01:42:19
FILE "THD - Outside In - 08 - Harbringer.wav" WAVE
INDEX 01 00:00:00
TRACK 09 AUDIO
TITLE "Release"
PERFORMER "THD"
INDEX 00 05:30:09
FILE "THD - Outside In - 09 - Release.wav" WAVE
INDEX 01 00:00:00
TRACK 10 AUDIO
TITLE "Can We Trade Our Souls"
PERFORMER "THD"
INDEX 00 05:05:13
FILE "THD - Outside In - 10 - Can We Trade Our Souls.wav" WAVE
INDEX 01 00:00:00
TRACK 11 AUDIO
TITLE "Serial Port Killers"
PERFORMER "THD"
INDEX 00 03:44:18
FILE "THD - Outside In - 11 - Serial Port Killers.wav" WAVE
INDEX 01 00:00:00
TRACK 12 AUDIO
TITLE "Welcome to Tomorrow"
PERFORMER "THD"
INDEX 00 06:09:22
FILE "THD - Outside In - 12 - Welcome to Tomorrow.wav" WAVE
INDEX 01 00:00:00
TRACK 13 AUDIO
TITLE "Beat Box City (Parts 1+2)"
PERFORMER "THD"
INDEX 00 03:56:65
FILE "THD - Outside In - 13 - Beat Box City (Parts 1+2).wav" WAVE
INDEX 01 00:00:00
TRACK 14 AUDIO
TITLE "Robotika"
PERFORMER "THD"
INDEX 00 03:20:10
FILE "THD - Outside In - 14 - Robotika.wav" WAVE
INDEX 01 00:00:00
Релиз взят с What.cd. Спасибо релизерам!
Правила, инструкции, FAQ!!!
Торрент  Добавлен [26 июн 2020, 17:01] Скачать торрент Магнет ссылка
Скачать торрент
[ Размер 19.17 КБ / Просмотров 2 ]

Статус
Проверен 
 
Размер  450.08 МБ
Приватный: Нет (DHT включён)
.torrent скачан  0
 


     Отправить личное сообщение
   
Страница 1 из 1
Показать сообщения за:  Поле сортировки  
Начать новую тему Ответить на тему


Сейчас этот форум просматривают: нет зарегистрированных пользователей и гости: 0


Вы не можете начинать темы
Вы не можете отвечать на сообщения
Вы не можете редактировать свои сообщения
Вы не можете удалять свои сообщения
Вы не можете добавлять вложения

Перейти:  
cron