Начать новую тему Ответить на тему
Статистика раздачи
Размер: 375.21 МБ | Добавлен: 26 июн 2020, 20:24 | Скачали: 0
Сидеров: 0  [0 байт/сек]    Личеров: 0  [0 байт/сек]
Пред. тема | След. тема 

Автор
Сообщение

СообщениеДобавлено: 26 июн 2020, 20:24 

Ответить с цитатой 

Terminal Choice - Venus
Жанр: EBM, Industrial
Год выпуска диска: 1999
Страна: Германия
Аудио кодек: FLAC
Тип рипа: image+.cue
Битрейт аудио: lossless
Продолжительность: 51:15
Трэклист:
01. Poisoned love (Vengeance Version)
02. Venus 1
03. Fatherland (Blood & Honor Mix)
04. Totes Fleisch (Blutengel RMX '99)
05. Aggression (Revenge 99)
06. Venus 2
07. Forbidden love
08. Poisoned love (Disapointed Mix)
09. Venus 3 (Version)
10. Fatherland (Trance Edit)
Код:
Exact Audio Copy V0.99 prebeta 4 from 23. January 2008
Отчёт EAC об извлечении, выполненном 21. декабря 2008, 4:07
Terminal Choice / Venus
Дисковод: TEAC    DV-W520GM   Adapter: 4  ID: 2
Режим чтения                 : Достоверность
Использование точного потока : Да
Отключение кэша аудио        : Да
Использование указателей C2  : Нет
Коррекция смещения при чтении                     : 6
Способность читать области Lead-in и Lead-out     : Нет
Заполнение пропущенных сэмплов тишиной            : Да
Удаление блоков с тишиной в начале и конце        : Нет
При вычислениях CRC использовались нулевые сэмплы : Да
Интерфейс                                         : Установленный внешний ASPI-интерфейс
Выходной формат : Внутренние WAV-операции
Формат сэмплов  : 44.100 Гц; 16 бит; стерео
TOC извлечённого CD
     Трек |   Старт  | Длительность | Начальный сектор | Конечный сектор
    ---------------------------------------------------------------------
       1  |  0:00.00 |    8:11.49   |           0      |      36873
       2  |  8:11.49 |    1:24.22   |       36874      |      43195
       3  |  9:35.71 |    6:27.04   |       43196      |      72224
       4  | 16:03.00 |    4:19.19   |       72225      |      91668
       5  | 20:22.19 |    6:24.19   |       91669      |     120487
       6  | 26:46.38 |    1:45.25   |      120488      |     128387
       7  | 28:31.63 |    5:43.32   |      128388      |     154144
       8  | 34:15.20 |    7:11.05   |      154145      |     186474
       9  | 41:26.25 |    4:14.15   |      186475      |     205539
      10  | 45:40.40 |    5:35.32   |      205540      |     230696
Характеристики диапазона извлечения и сообщения об ошибках
Выбранный диапазон
     Имя файла F:\RELEASE\My RELEASES\Terminal Choice - Venus [1999]\Terminal Choice - Venus.wav
     Пиковый уровень 96.5 %
     Качество диапазона 100.0 %
     CRC теста D8957117
     CRC копии D8957117
     Копирование... OK
Ошибок не произошло
AccurateRip: сводка
Трек  1  точное извлечение (доверие 2)  [CB6AF9D5]
Трек  2  точное извлечение (доверие 2)  [60795D7B]
Трек  3  точное извлечение (доверие 2)  [5EB5640B]
Трек  4  точное извлечение (доверие 2)  [50E226B3]
Трек  5  точное извлечение (доверие 2)  [CA23578E]
Трек  6  точное извлечение (доверие 2)  [205BD6BE]
Трек  7  точное извлечение (доверие 2)  [FEB3BADC]
Трек  8  точное извлечение (доверие 2)  [4645B351]
Трек  9  точное извлечение (доверие 2)  [FDBBB22A]
Трек 10  точное извлечение (доверие 2)  [D4916FAD]
Все треки извлечены точно
Конец отчёта
Код:
AUDIOCHECKER v2.0 beta (build 457) - by Dester - opdester@freemail.hu
~~~~~~~~~~~~~~~~~~~~~~~~~~~~~~~~~~
-=== DO NOT EDIT THIS FILE! ===-
Path: ...\Terminal Choice - Venus [1999]
1 -=- Terminal Choice - Venus.flac -=- CDDA (100%)
118246084
Правила, инструкции, FAQ!!!
Торрент  Добавлен [26 июн 2020, 20:24] Скачать торрент Магнет ссылка
Скачать торрент
[ Размер 15.58 КБ / Просмотров 9 ]

Статус
Проверен 
 
Размер  375.21 МБ
Приватный: Нет (DHT включён)
.torrent скачан  0
 


     Отправить личное сообщение
   
Страница 1 из 1
Показать сообщения за:  Поле сортировки  
Начать новую тему Ответить на тему


Сейчас этот форум просматривают: нет зарегистрированных пользователей и гости: 0


Вы не можете начинать темы
Вы не можете отвечать на сообщения
Вы не можете редактировать свои сообщения
Вы не можете удалять свои сообщения
Вы не можете добавлять вложения

Перейти:  
cron