Начать новую тему Ответить на тему
Статистика раздачи
Размер: 574.69 МБ | Добавлен: 26 июн 2020, 19:06 | Скачали: 0
Сидеров: 0  [0 байт/сек]    Личеров: 0  [0 байт/сек]
Пред. тема | След. тема 

Автор
Сообщение

СообщениеДобавлено: 26 июн 2020, 19:06 

Ответить с цитатой 

Terminal Choice - Ominous Future
Жанр: EBM, Industrial
Год выпуска диска: 2000
Страна: Германия
Аудио кодек: FLAC
Тип рипа: image+.cue
Битрейт аудио: lossless
Продолжительность: 71:40
Трэклист:
01. The Saviour
02. No Chance (Anger Version)
03. Animal
04. Armageddon
05. In Your Soul
06. Human Hunter
07. Universe Of Love
08. Time
09. On The Battlefield
10. My Way
11. New World
12. I Kissed Her
13. Perverted Love
Доп. информация: http://www.discogs.com/release/413048
Код:
Exact Audio Copy V0.99 prebeta 4 from 23. January 2008
Отчёт EAC об извлечении, выполненном 3. января 2009, 2:20
Terminal Choice / Ominous Future
Дисковод: TEAC    DV-W520GM   Adapter: 4  ID: 2
Режим чтения                 : Достоверность
Использование точного потока : Да
Отключение кэша аудио        : Да
Использование указателей C2  : Нет
Коррекция смещения при чтении                     : 6
Способность читать области Lead-in и Lead-out     : Нет
Заполнение пропущенных сэмплов тишиной            : Да
Удаление блоков с тишиной в начале и конце        : Нет
При вычислениях CRC использовались нулевые сэмплы : Да
Интерфейс                                         : Установленный внешний ASPI-интерфейс
Выходной формат : Внутренние WAV-операции
Формат сэмплов  : 44.100 Гц; 16 бит; стерео
TOC извлечённого CD
     Трек |   Старт  | Длительность | Начальный сектор | Конечный сектор
    ---------------------------------------------------------------------
       1  |  0:00.00 |    6:46.54   |           0      |      30503
       2  |  6:46.54 |    4:42.48   |       30504      |      51701
       3  | 11:29.27 |    5:08.00   |       51702      |      74801
       4  | 16:37.27 |    4:49.38   |       74802      |      96514
       5  | 21:26.65 |    5:51.08   |       96515      |     122847
       6  | 27:17.73 |    6:04.63   |      122848      |     150210
       7  | 33:22.61 |    4:47.06   |      150211      |     171741
       8  | 38:09.67 |    5:37.47   |      171742      |     197063
       9  | 43:47.39 |    7:22.45   |      197064      |     230258
      10  | 51:10.09 |    5:12.37   |      230259      |     253695
      11  | 56:22.46 |    4:13.30   |      253696      |     272700
      12  | 60:36.01 |    5:17.09   |      272701      |     296484
      13  | 65:53.10 |    5:47.21   |      296485      |     322530
Характеристики диапазона извлечения и сообщения об ошибках
Выбранный диапазон
     Имя файла F:\RELEASE\My RELEASES\Terminal Choice - Ominous Future [2000]\Terminal Choice - Ominous Future.wav
     Пиковый уровень 100.0 %
     Качество диапазона 100.0 %
     CRC теста A899BC37
     CRC копии A899BC37
     Копирование... OK
Ошибок не произошло
AccurateRip: сводка
Трек  1  точное извлечение (доверие 3)  [7C945FCF]
Трек  2  точное извлечение (доверие 3)  [5F67CC88]
Трек  3  точное извлечение (доверие 3)  [AA13B5A4]
Трек  4  точное извлечение (доверие 3)  [E5C74F8E]
Трек  5  точное извлечение (доверие 3)  [6D89B727]
Трек  6  точное извлечение (доверие 3)  [9131C8F3]
Трек  7  точное извлечение (доверие 3)  [E4E12E60]
Трек  8  точное извлечение (доверие 3)  [E2D776DA]
Трек  9  точное извлечение (доверие 3)  [7E011904]
Трек 10  точное извлечение (доверие 3)  [B82E9626]
Трек 11  точное извлечение (доверие 3)  [F2E7285C]
Трек 12  точное извлечение (доверие 3)  [EF9C94C2]
Трек 13  точное извлечение (доверие 3)  [9B2D7C99]
Все треки извлечены точно
Конец отчёта
Код:
AUDIOCHECKER v2.0 beta (build 457) - by Dester - opdester@freemail.hu
~~~~~~~~~~~~~~~~~~~~~~~~~~~~~~~~~~
-=== DO NOT EDIT THIS FILE! ===-
Path: ...\Terminal Choice - Ominous Future [2000]
1 -=- Terminal Choice - Ominous Future.flac -=- CDDA (100%)
190880980
Правила, инструкции, FAQ!!!
Торрент  Добавлен [26 июн 2020, 19:06] Скачать торрент Магнет ссылка
Скачать торрент
[ Размер 12.42 КБ / Просмотров 12 ]

Статус
Проверен 
 
Размер  574.69 МБ
Приватный: Нет (DHT включён)
.torrent скачан  0
 


     Отправить личное сообщение
   
Страница 1 из 1
Показать сообщения за:  Поле сортировки  
Начать новую тему Ответить на тему


Сейчас этот форум просматривают: нет зарегистрированных пользователей и гости: 0


Вы не можете начинать темы
Вы не можете отвечать на сообщения
Вы не можете редактировать свои сообщения
Вы не можете удалять свои сообщения
Вы не можете добавлять вложения

Перейти:  
cron