Начать новую тему Ответить на тему
Статистика раздачи
Размер: 3.01 ГБ | Добавлен: 26 июн 2020, 17:27 | Скачали: 0
Сидеров: 0  [0 байт/сек]    Личеров: 0  [0 байт/сек]
Пред. тема | След. тема 

Автор
Сообщение

СообщениеДобавлено: 26 июн 2020, 17:27 

Ответить с цитатой 

Terminal Choice / Black Journey 1-3 (3 × 2CD, Remastered Compilation, Limited Edition)

Жанр: EBM, Industrial
Страна-производитель дисков: Germany
Год издания : 2011
Издатель (лейбл): Out Of Line
Страна: Germany
Аудиокодек: FLAC (*.flac)
Тип рипа: image+.cue
Битрейт аудио: lossless
Источник (релизер): 6CD из личной коллекции.
Наличие сканов в содержимом раздачи: да
Номер по каталогу: OUT 463 | 464
Продолжительность: 1:15:41.09 + 1:12:57.61
Треклист:
Black Journey 1 CD 1
01. No Paradise 06:18
02. Creatures 06:41
03. Kill Them All 04:17
04. The Evil Command 05:25
05. Life Full Of Tragedy 05:25
06. Necromantic Lover 03:47
07. Die Ewigkeit 05:17
08. Digital Terror 04:06
09. Kiss You (Original Demo Version) 05:11
10. The End Of The Human Race 03:42
11. When I Close My Eyes 05:09
12. Klaustrophobia 04:28
13. Death 05:47
14. Nerve Torture 05:09
15. Fear Of Existance 05:00
Black Journey 1 CD 2
01. Hoellensog 07:33
02. Serial Killer 05:02
03. Totes Fleisch 05:45
04. Time To Die Remixes (1998) 02:41
05. Untitled 00:24
06. Totes Fleisch (Tages Version) 05:17
07. Totes Fleisch (T:B.C Version) 03:51
08. Totes Fleisch (Blood Version) 05:34
09. Totes Fleisch (Mezire Mix) 04:19
10. Untitled 00:33
11. In This Lovely Night 07:01
12. Schmerz 04:05
13. Black Rubber 04:25
14. Perverted Desire 05:37
15. Daddy 04:43
16. Tonight 06:11
Discogs
Код:
Exact Audio Copy V0.99 prebeta 5 from 4. May 2009
Отчёт EAC об извлечении, выполненном 6. апреля 2011, 8:02
Terminal Choice / Black Journey 1 (CD 1)
Дисковод: TSSTcorpCDDVDW TS-L632H   Adapter: 0  ID: 0
Режим чтения                 : Достоверность
Использование точного потока : Да
Отключение кэша аудио        : Да
Использование указателей C2  : Нет
Коррекция смещения при чтении                     : 6
Способность читать области Lead-in и Lead-out     : Нет
Заполнение пропущенных сэмплов тишиной            : Да
Удаление блоков с тишиной в начале и конце        : Нет
При вычислениях CRC использовались нулевые сэмплы : Да
Интерфейс                                         : Встроенный Win32-интерфейс для Win NT/2000
Выходной формат          : Пользовательский кодировщик
Выбранный битрейт        : 1024 kBit/s
Качество                 : Высокий
Добавление ID3-тэга      : Нет
Утилита сжатия           : C:\Program Files\Exact Audio Copy\FLAC\FLAC.EXE
Дополнительные параметры : -6 -V -T "ARTIST=%a" -T "TITLE=%t" -T "ALBUM=%g" -T "DATE=%y" -T "TRACKNUMBER=%n" -T "GENRE=%m" -T "COMMENT=%e" %s -o %d
TOC извлечённого CD
     Трек |   Старт  | Длительность | Начальный сектор | Конечный сектор
    ---------------------------------------------------------------------
       1  |  0:00.00 |    6:17.55   |           0      |      28329
       2  |  6:17.55 |    6:41.10   |       28330      |      58414
       3  | 12:58.65 |    4:16.38   |       58415      |      77652
       4  | 17:15.28 |    5:25.13   |       77653      |     102040
       5  | 22:40.41 |    5:24.53   |      102041      |     126393
       6  | 28:05.19 |    3:46.43   |      126394      |     143386
       7  | 31:51.62 |    5:17.23   |      143387      |     167184
       8  | 37:09.10 |    4:06.06   |      167185      |     185640
       9  | 41:15.16 |    5:10.57   |      185641      |     208947
      10  | 46:25.73 |    3:42.03   |      208948      |     225600
      11  | 50:08.01 |    5:09.02   |      225601      |     248777
      12  | 55:17.03 |    4:27.69   |      248778      |     268871
      13  | 59:44.72 |    5:46.48   |      268872      |     294869
      14  | 65:31.45 |    5:09.18   |      294870      |     318062
      15  | 70:40.63 |    5:00.21   |      318063      |     340583
Характеристики диапазона извлечения и сообщения об ошибках
Выбранный диапазон
     Имя файла C:\Users\Алексей\Desktop\iPOD\Terminal Choice - Black Journey 1 (CD 1).wav
     Пиковый уровень 97.7 %
     Качество диапазона 100.0 %
     CRC теста E7E1743E
     CRC копии E7E1743E
     Копирование... OK
Ошибок не произошло
AccurateRip: сводка
Трек  1  нет в базе данных
Трек  2  нет в базе данных
Трек  3  нет в базе данных
Трек  4  нет в базе данных
Трек  5  нет в базе данных
Трек  6  нет в базе данных
Трек  7  нет в базе данных
Трек  8  нет в базе данных
Трек  9  нет в базе данных
Трек 10  нет в базе данных
Трек 11  нет в базе данных
Трек 12  нет в базе данных
Трек 13  нет в базе данных
Трек 14  нет в базе данных
Трек 15  нет в базе данных
Ни одного трека нет в базе AccurateRip
Конец отчёта
Код:
Exact Audio Copy V0.99 prebeta 5 from 4. May 2009
Отчёт EAC об извлечении, выполненном 6. апреля 2011, 8:49
Terminal Choice / Black Journey 1 (CD 2)
Дисковод: TSSTcorpCDDVDW TS-L632H   Adapter: 0  ID: 0
Режим чтения                 : Достоверность
Использование точного потока : Да
Отключение кэша аудио        : Да
Использование указателей C2  : Нет
Коррекция смещения при чтении                     : 6
Способность читать области Lead-in и Lead-out     : Нет
Заполнение пропущенных сэмплов тишиной            : Да
Удаление блоков с тишиной в начале и конце        : Нет
При вычислениях CRC использовались нулевые сэмплы : Да
Интерфейс                                         : Встроенный Win32-интерфейс для Win NT/2000
Выходной формат          : Пользовательский кодировщик
Выбранный битрейт        : 1024 kBit/s
Качество                 : Высокий
Добавление ID3-тэга      : Нет
Утилита сжатия           : C:\Program Files\Exact Audio Copy\FLAC\FLAC.EXE
Дополнительные параметры : -6 -V -T "ARTIST=%a" -T "TITLE=%t" -T "ALBUM=%g" -T "DATE=%y" -T "TRACKNUMBER=%n" -T "GENRE=%m" -T "COMMENT=%e" %s -o %d
TOC извлечённого CD
     Трек |   Старт  | Длительность | Начальный сектор | Конечный сектор
    ---------------------------------------------------------------------
       1  |  0:00.00 |    7:33.06   |           0      |      33980
       2  |  7:33.06 |    5:01.67   |       33981      |      56622
       3  | 12:34.73 |    5:45.30   |       56623      |      82527
       4  | 18:20.28 |    2:41.12   |       82528      |      94614
       5  | 21:01.40 |    0:23.50   |       94615      |      96389
       6  | 21:25.15 |    5:16.45   |       96390      |     120134
       7  | 26:41.60 |    3:50.33   |      120135      |     137417
       8  | 30:32.18 |    5:33.46   |      137418      |     162438
       9  | 36:05.64 |    4:18.59   |      162439      |     181847
      10  | 40:24.48 |    0:32.64   |      181848      |     184311
      11  | 40:57.37 |    7:00.55   |      184312      |     215866
      12  | 47:58.17 |    4:05.10   |      215867      |     234251
      13  | 52:03.27 |    4:24.47   |      234252      |     254098
      14  | 56:27.74 |    5:36.58   |      254099      |     279356
      15  | 62:04.57 |    4:42.38   |      279357      |     300544
      16  | 66:47.20 |    6:10.41   |      300545      |     328335
Характеристики диапазона извлечения и сообщения об ошибках
Выбранный диапазон
     Имя файла C:\Users\Алексей\Desktop\iPOD\Terminal Choice - Black Journey 1 (CD 2).wav
     Пиковый уровень 97.5 %
     Качество диапазона 100.0 %
     CRC теста A1D6C9C8
     CRC копии A1D6C9C8
     Копирование... OK
Ошибок не произошло
AccurateRip: сводка
Трек  1  нет в базе данных
Трек  2  нет в базе данных
Трек  3  нет в базе данных
Трек  4  нет в базе данных
Трек  5  нет в базе данных
Трек  6  нет в базе данных
Трек  7  нет в базе данных
Трек  8  нет в базе данных
Трек  9  нет в базе данных
Трек 10  нет в базе данных
Трек 11  нет в базе данных
Трек 12  нет в базе данных
Трек 13  нет в базе данных
Трек 14  нет в базе данных
Трек 15  нет в базе данных
Трек 16  нет в базе данных
Ни одного трека нет в базе AccurateRip
Конец отчёта
Код:
REM GENRE "EBM Electro"
REM DATE 2011
REM DISCID DB11BD0F
REM COMMENT "ExactAudioCopy v0.99pb5"
PERFORMER "Terminal Choice"
TITLE "Black Journey 1 (CD 1)"
FILE "Terminal Choice - Black Journey 1 (CD 1).flac" WAVE
  TRACK 01 AUDIO
    TITLE "No paradise"
    PERFORMER "Terminal Choice"
    INDEX 01 00:00:00
  TRACK 02 AUDIO
    TITLE "Creatures"
    PERFORMER "Terminal Choice"
    INDEX 00 06:15:56
    INDEX 01 06:17:55
  TRACK 03 AUDIO
    TITLE "Kill them all"
    PERFORMER "Terminal Choice"
    INDEX 00 12:56:66
    INDEX 01 12:58:65
  TRACK 04 AUDIO
    TITLE "The evil command"
    PERFORMER "Terminal Choice"
    INDEX 00 17:13:29
    INDEX 01 17:15:28
  TRACK 05 AUDIO
    TITLE "Life full of tragedy"
    PERFORMER "Terminal Choice"
    INDEX 00 22:38:42
    INDEX 01 22:40:41
  TRACK 06 AUDIO
    TITLE "Necromantic lover"
    PERFORMER "Terminal Choice"
    INDEX 00 28:03:20
    INDEX 01 28:05:19
  TRACK 07 AUDIO
    TITLE "Die Ewigkeit"
    PERFORMER "Terminal Choice"
    INDEX 00 31:49:63
    INDEX 01 31:51:62
  TRACK 08 AUDIO
    TITLE "Digital terror"
    PERFORMER "Terminal Choice"
    INDEX 00 37:07:11
    INDEX 01 37:09:10
  TRACK 09 AUDIO
    TITLE "Kiss you (Original demo version)"
    PERFORMER "Terminal Choice"
    INDEX 00 41:13:17
    INDEX 01 41:15:16
  TRACK 10 AUDIO
    TITLE "To the end of the human race"
    PERFORMER "Terminal Choice"
    INDEX 00 46:23:74
    INDEX 01 46:25:73
  TRACK 11 AUDIO
    TITLE "When I close my eyes"
    PERFORMER "Terminal Choice"
    INDEX 00 50:06:02
    INDEX 01 50:08:01
  TRACK 12 AUDIO
    TITLE "Klaustrophobia"
    PERFORMER "Terminal Choice"
    INDEX 00 55:15:04
    INDEX 01 55:17:03
  TRACK 13 AUDIO
    TITLE "Death"
    PERFORMER "Terminal Choice"
    INDEX 00 59:42:73
    INDEX 01 59:44:72
  TRACK 14 AUDIO
    TITLE "Nerve Torture"
    PERFORMER "Terminal Choice"
    INDEX 00 65:29:46
    INDEX 01 65:31:45
  TRACK 15 AUDIO
    TITLE "Fear Of Existance"
    PERFORMER "Terminal Choice"
    INDEX 00 70:38:64
    INDEX 01 70:40:63
Код:
REM GENRE "EBM Electro"
REM DATE 2011
REM DISCID E3111910
REM COMMENT "ExactAudioCopy v0.99pb5"
PERFORMER "Terminal Choice"
TITLE "Black Journey 1 (CD 2)"
FILE "Terminal Choice - Black Journey 1 (CD 2).flac" WAVE
  TRACK 01 AUDIO
    TITLE "Hoellensog"
    PERFORMER "Terminal Choice"
    INDEX 01 00:00:00
  TRACK 02 AUDIO
    TITLE "Serial killer"
    PERFORMER "Terminal Choice"
    INDEX 00 07:31:07
    INDEX 01 07:33:06
  TRACK 03 AUDIO
    TITLE "Totes Fleisch"
    PERFORMER "Terminal Choice"
    INDEX 00 12:32:74
    INDEX 01 12:34:73
  TRACK 04 AUDIO
    TITLE "Time to die"
    PERFORMER "Terminal Choice"
    INDEX 00 18:18:29
    INDEX 01 18:20:28
  TRACK 05 AUDIO
    TITLE "Intro"
    PERFORMER "Terminal Choice"
    INDEX 00 20:59:41
    INDEX 01 21:01:40
  TRACK 06 AUDIO
    TITLE "Totes Fleisch [Tages Version)"
    PERFORMER "Terminal Choice"
    INDEX 00 21:24:66
    INDEX 01 21:25:15
  TRACK 07 AUDIO
    TITLE "Totes Fleisch (Tbc Version)"
    PERFORMER "Terminal Choice"
    INDEX 00 26:39:61
    INDEX 01 26:41:60
  TRACK 08 AUDIO
    TITLE "Totes Fleisch (Blood Version)"
    PERFORMER "Terminal Choice"
    INDEX 00 30:30:19
    INDEX 01 30:32:18
  TRACK 09 AUDIO
    TITLE "Totes Fleisch (meZire Mix)"
    PERFORMER "Terminal Choice"
    INDEX 00 36:03:65
    INDEX 01 36:05:64
  TRACK 10 AUDIO
    TITLE "Outro"
    PERFORMER "Terminal Choice"
    INDEX 00 40:24:23
    INDEX 01 40:24:48
  TRACK 11 AUDIO
    TITLE "In This Lovely Night"
    PERFORMER "Terminal Choice"
    INDEX 00 40:55:38
    INDEX 01 40:57:37
  TRACK 12 AUDIO
    TITLE "Schmerz"
    PERFORMER "Terminal Choice"
    INDEX 00 47:56:18
    INDEX 01 47:58:17
  TRACK 13 AUDIO
    TITLE "Black Rubber"
    PERFORMER "Terminal Choice"
    INDEX 00 52:01:28
    INDEX 01 52:03:27
  TRACK 14 AUDIO
    TITLE "Perverted Desire"
    PERFORMER "Terminal Choice"
    INDEX 00 56:26:00
    INDEX 01 56:27:74
  TRACK 15 AUDIO
    TITLE "Daddy"
    PERFORMER "Terminal Choice"
    INDEX 00 62:02:58
    INDEX 01 62:04:57
  TRACK 16 AUDIO
    TITLE "Tonight"
    PERFORMER "Terminal Choice"
    INDEX 00 66:45:21
    INDEX 01 66:47:20
#777Номер по каталогу: OUT 465 | 466
Продолжительность: 1:13:48.18 + 1:12:44.36
Треклист:
Black Journey 2 CD 1
01. (Intro) Actual Reality? 03:06
02. Without Warning 05:07
03. Victim Of Life 06:04
04. Someone 03:50
05. Navigator I 01:51
06. Der Tod 05:57
07. House Of Evil 04:42
08. No Escape 05:47
09. The Sons Of Doom 05:01
10. Tenderness 01:13
11. Navigator II 06:05
12. The Eternal Evil 06:08
13. Kaltes Herz 04:19
14. Navigator III 01:49
15. Navigator IV (Version) 03:28
16. Someone (Accessory Mix) 05:50
17. I Don't Believe 03:33
Black Journey 2 CD2
01. Poisoned Love (Vengeance Version) 08:10
02. Venus 1 01:25
03. Fatherland (Blood & Honor Mix) 06:27
04. Totes Fleisch (BLUTENGEL Remix '99) 04:18
05. Aggression (Revenge '99) 06:24
06. Venus 2 01:47
07. Forbidden Love 05:41
08. Poisoned Love (Disappointed Mix) 07:09
09. Venus 3 (Version) 04:16
10. Fatherland (Trance Edit) 05:35
11. Someone (Re-Loaded) 05:20
12. Totes Fleisch (Final Mix) 05:29
13. Flowers 05:08
14. Hate Me 05:37
Discogs
Код:
Exact Audio Copy V0.99 prebeta 5 from 4. May 2009
Отчёт EAC об извлечении, выполненном 3. апреля 2011, 18:23
Terminal Choice / Black Journey 2 (CD 1)
Дисковод: TSSTcorpCDDVDW TS-L632H   Adapter: 0  ID: 0
Режим чтения                 : Достоверность
Использование точного потока : Да
Отключение кэша аудио        : Да
Использование указателей C2  : Нет
Коррекция смещения при чтении                     : 6
Способность читать области Lead-in и Lead-out     : Нет
Заполнение пропущенных сэмплов тишиной            : Да
Удаление блоков с тишиной в начале и конце        : Нет
При вычислениях CRC использовались нулевые сэмплы : Да
Интерфейс                                         : Встроенный Win32-интерфейс для Win NT/2000
Выходной формат          : Пользовательский кодировщик
Выбранный битрейт        : 1024 kBit/s
Качество                 : Высокий
Добавление ID3-тэга      : Нет
Утилита сжатия           : C:\Program Files\Exact Audio Copy\FLAC\FLAC.EXE
Дополнительные параметры : -6 -V -T "ARTIST=%a" -T "TITLE=%t" -T "ALBUM=%g" -T "DATE=%y" -T "TRACKNUMBER=%n" -T "GENRE=%m" -T "COMMENT=%e" %s -o %d
TOC извлечённого CD
     Трек |   Старт  | Длительность | Начальный сектор | Конечный сектор
    ---------------------------------------------------------------------
       1  |  0:00.00 |    3:05.43   |           0      |      13917
       2  |  3:05.43 |    5:06.52   |       13918      |      36919
       3  |  8:12.20 |    6:03.69   |       36920      |      64213
       4  | 14:16.14 |    3:49.60   |       64214      |      81448
       5  | 18:05.74 |    1:51.08   |       81449      |      89781
       6  | 19:57.07 |    5:56.52   |       89782      |     116533
       7  | 25:53.59 |    4:41.43   |      116534      |     137651
       8  | 30:35.27 |    5:47.09   |      137652      |     163685
       9  | 36:22.36 |    5:01.19   |      163686      |     186279
      10  | 41:23.55 |    1:12.62   |      186280      |     191741
      11  | 42:36.42 |    6:05.04   |      191742      |     219120
      12  | 48:41.46 |    6:07.72   |      219121      |     246717
      13  | 54:49.43 |    4:18.41   |      246718      |     266108
      14  | 59:08.09 |    1:49.07   |      266109      |     274290
      15  | 60:57.16 |    3:27.68   |      274291      |     289883
      16  | 64:25.09 |    5:50.21   |      289884      |     316154
      17  | 70:15.30 |    3:32.63   |      316155      |     332117
Характеристики диапазона извлечения и сообщения об ошибках
Выбранный диапазон
     Имя файла C:\Users\Алексей\Desktop\iPOD\Terminal Choice - Black Journey 2 (CD 1).wav
     Пиковый уровень 97.5 %
     Качество диапазона 100.0 %
     CRC теста 210F3B17
     CRC копии 210F3B17
     Копирование... OK
Ошибок не произошло
AccurateRip: сводка
Трек  1  нет в базе данных
Трек  2  нет в базе данных
Трек  3  нет в базе данных
Трек  4  нет в базе данных
Трек  5  нет в базе данных
Трек  6  нет в базе данных
Трек  7  нет в базе данных
Трек  8  нет в базе данных
Трек  9  нет в базе данных
Трек 10  нет в базе данных
Трек 11  нет в базе данных
Трек 12  нет в базе данных
Трек 13  нет в базе данных
Трек 14  нет в базе данных
Трек 15  нет в базе данных
Трек 16  нет в базе данных
Трек 17  нет в базе данных
Ни одного трека нет в базе AccurateRip
Конец отчёта
Код:
Exact Audio Copy V0.99 prebeta 5 from 4. May 2009
Отчёт EAC об извлечении, выполненном 4. апреля 2011, 7:28
Terminal Choice / Black Journey 2 (CD 2)
Дисковод: TSSTcorpCDDVDW TS-L632H   Adapter: 0  ID: 0
Режим чтения                 : Достоверность
Использование точного потока : Да
Отключение кэша аудио        : Да
Использование указателей C2  : Нет
Коррекция смещения при чтении                     : 6
Способность читать области Lead-in и Lead-out     : Нет
Заполнение пропущенных сэмплов тишиной            : Да
Удаление блоков с тишиной в начале и конце        : Нет
При вычислениях CRC использовались нулевые сэмплы : Да
Интерфейс                                         : Встроенный Win32-интерфейс для Win NT/2000
Выходной формат          : Пользовательский кодировщик
Выбранный битрейт        : 1024 kBit/s
Качество                 : Высокий
Добавление ID3-тэга      : Нет
Утилита сжатия           : C:\Program Files\Exact Audio Copy\FLAC\FLAC.EXE
Дополнительные параметры : -6 -V -T "ARTIST=%a" -T "TITLE=%t" -T "ALBUM=%g" -T "DATE=%y" -T "TRACKNUMBER=%n" -T "GENRE=%m" -T "COMMENT=%e" %s -o %d
TOC извлечённого CD
     Трек |   Старт  | Длительность | Начальный сектор | Конечный сектор
    ---------------------------------------------------------------------
       1  |  0:00.00 |    8:10.00   |           0      |      36749
       2  |  8:10.00 |    1:24.61   |       36750      |      43110
       3  |  9:34.61 |    6:26.56   |       43111      |      72116
       4  | 16:01.42 |    4:17.66   |       72117      |      91457
       5  | 20:19.33 |    6:24.22   |       91458      |     120279
       6  | 26:43.55 |    1:46.65   |      120280      |     128294
       7  | 28:30.45 |    5:40.55   |      128295      |     153849
       8  | 34:11.25 |    7:08.74   |      153850      |     186023
       9  | 41:20.24 |    4:15.54   |      186024      |     205202
      10  | 45:36.03 |    5:34.58   |      205203      |     230310
      11  | 51:10.61 |    5:19.40   |      230311      |     254275
      12  | 56:30.26 |    5:28.61   |      254276      |     278936
      13  | 61:59.12 |    5:07.74   |      278937      |     302035
      14  | 67:07.11 |    5:37.25   |      302036      |     327335
Характеристики диапазона извлечения и сообщения об ошибках
Выбранный диапазон
     Имя файла C:\Users\Алексей\Desktop\iPOD\Terminal Choice - Black Journey 2 (CD 2).wav
     Пиковый уровень 97.5 %
     Качество диапазона 100.0 %
     CRC теста 7F805991
     CRC копии 7F805991
     Копирование... OK
Ошибок не произошло
AccurateRip: сводка
Трек  1  нет в базе данных
Трек  2  нет в базе данных
Трек  3  нет в базе данных
Трек  4  нет в базе данных
Трек  5  нет в базе данных
Трек  6  нет в базе данных
Трек  7  нет в базе данных
Трек  8  нет в базе данных
Трек  9  нет в базе данных
Трек 10  нет в базе данных
Трек 11  нет в базе данных
Трек 12  нет в базе данных
Трек 13  нет в базе данных
Трек 14  нет в базе данных
Ни одного трека нет в базе AccurateRip
Конец отчёта
Код:
REM GENRE "EBM Electro"
REM DATE 2011
REM DISCID 1F114C11
REM COMMENT "ExactAudioCopy v0.99pb5"
PERFORMER "Terminal Choice"
TITLE "Black Journey 2 (CD 1)"
FILE "Terminal Choice - Black Journey 2 (CD 1).flac" WAVE
  TRACK 01 AUDIO
    TITLE "(Intro) Actual Reality"
    PERFORMER "Terminal Choice"
    INDEX 01 00:00:00
  TRACK 02 AUDIO
    TITLE "Without Warning"
    PERFORMER "Terminal Choice"
    INDEX 00 03:04:44
    INDEX 01 03:05:43
  TRACK 03 AUDIO
    TITLE "Victim of Life"
    PERFORMER "Terminal Choice"
    INDEX 00 08:10:21
    INDEX 01 08:12:20
  TRACK 04 AUDIO
    TITLE "Someone"
    PERFORMER "Terminal Choice"
    INDEX 00 14:14:15
    INDEX 01 14:16:14
  TRACK 05 AUDIO
    TITLE "Navigator  I"
    PERFORMER "Terminal Choice"
    INDEX 00 18:04:00
    INDEX 01 18:05:74
  TRACK 06 AUDIO
    TITLE "Der Tod"
    PERFORMER "Terminal Choice"
    INDEX 00 19:55:08
    INDEX 01 19:57:07
  TRACK 07 AUDIO
    TITLE "House of Evil"
    PERFORMER "Terminal Choice"
    INDEX 00 25:51:60
    INDEX 01 25:53:59
  TRACK 08 AUDIO
    TITLE "No Escape"
    PERFORMER "Terminal Choice"
    INDEX 00 30:33:28
    INDEX 01 30:35:27
  TRACK 09 AUDIO
    TITLE "The Sons of Doom"
    PERFORMER "Terminal Choice"
    INDEX 00 36:20:37
    INDEX 01 36:22:36
  TRACK 10 AUDIO
    TITLE "Tenderness"
    PERFORMER "Terminal Choice"
    INDEX 00 41:21:56
    INDEX 01 41:23:55
  TRACK 11 AUDIO
    TITLE "Navigator  II"
    PERFORMER "Terminal Choice"
    INDEX 00 42:34:43
    INDEX 01 42:36:42
  TRACK 12 AUDIO
    TITLE "The Eternal Evil"
    PERFORMER "Terminal Choice"
    INDEX 00 48:39:47
    INDEX 01 48:41:46
  TRACK 13 AUDIO
    TITLE "Kaltes Herz"
    PERFORMER "Terminal Choice"
    INDEX 00 54:47:44
    INDEX 01 54:49:43
  TRACK 14 AUDIO
    TITLE "Navigator  III"
    PERFORMER "Terminal Choice"
    INDEX 00 59:06:10
    INDEX 01 59:08:09
  TRACK 15 AUDIO
    TITLE "Navigator  IV (version)"
    PERFORMER "Terminal Choice"
    INDEX 00 60:55:17
    INDEX 01 60:57:16
  TRACK 16 AUDIO
    TITLE "Someone (Accessory Mix)"
    PERFORMER "Terminal Choice"
    INDEX 00 64:23:10
    INDEX 01 64:25:09
  TRACK 17 AUDIO
    TITLE "I Don't Believe"
    PERFORMER "Terminal Choice"
    INDEX 00 70:13:31
    INDEX 01 70:15:30
Код:
REM GENRE "EBM Electro"
REM DATE 2011
REM DISCID B9110C0E
REM COMMENT "ExactAudioCopy v0.99pb5"
PERFORMER "Terminal Choice"
TITLE "Black Journey 2 (CD 2) "
FILE "Terminal Choice - Black Journey 2 (CD 2).flac" WAVE
  TRACK 01 AUDIO
    TITLE "Poisoned Love (vengeance version)"
    PERFORMER "Terminal Choice"
    INDEX 01 00:00:00
  TRACK 02 AUDIO
    TITLE "Venus 1"
    PERFORMER "Terminal Choice"
    INDEX 00 08:08:01
    INDEX 01 08:10:00
  TRACK 03 AUDIO
    TITLE "Fatherland (blood & honor mx)"
    PERFORMER "Terminal Choice"
    INDEX 00 09:32:62
    INDEX 01 09:34:61
  TRACK 04 AUDIO
    TITLE "Totes Fleisch (Blutengel rmx '99)"
    PERFORMER "Terminal Choice"
    INDEX 00 15:59:43
    INDEX 01 16:01:42
  TRACK 05 AUDIO
    TITLE "Aggression (revenge 99)"
    PERFORMER "Terminal Choice"
    INDEX 00 20:17:34
    INDEX 01 20:19:33
  TRACK 06 AUDIO
    TITLE "Venus 2"
    PERFORMER "Terminal Choice"
    INDEX 00 26:41:56
    INDEX 01 26:43:55
  TRACK 07 AUDIO
    TITLE "Forbidden Love"
    PERFORMER "Terminal Choice"
    INDEX 00 28:28:46
    INDEX 01 28:30:45
  TRACK 08 AUDIO
    TITLE "Poisoned Love (disapointed mix)"
    PERFORMER "Terminal Choice"
    INDEX 00 34:09:26
    INDEX 01 34:11:25
  TRACK 09 AUDIO
    TITLE "Venus 3 (Version)"
    PERFORMER "Terminal Choice"
    INDEX 00 41:18:25
    INDEX 01 41:20:24
  TRACK 10 AUDIO
    TITLE "Fatherland (trance edit)"
    PERFORMER "Terminal Choice"
    INDEX 00 45:34:04
    INDEX 01 45:36:03
  TRACK 11 AUDIO
    TITLE "Someone"
    PERFORMER "Terminal Choice"
    INDEX 00 51:08:62
    INDEX 01 51:10:61
  TRACK 12 AUDIO
    TITLE "Totes Fleisch (Final Mix)"
    PERFORMER "Terminal Choice"
    INDEX 00 56:28:27
    INDEX 01 56:30:26
  TRACK 13 AUDIO
    TITLE "Flowers"
    PERFORMER "Terminal Choice"
    INDEX 00 61:57:13
    INDEX 01 61:59:12
  TRACK 14 AUDIO
    TITLE "Hate Me"
    PERFORMER "Terminal Choice"
    INDEX 00 67:05:12
    INDEX 01 67:07:11
#777Номер по каталогу: OUT 467 | 468
Продолжительность: 1:16:56.01 + 1:15:33.60
Треклист:
Black Journey 3 CD 1
01. The Savior 06:47
02. No Chance (Anger Version) 04:43
03. Animal 05:08
04. Armageddon 04:50
05. In Your Soul 05:50
06. Human Hunter 06:04
07. Universe of Love 04:47
08. Time 05:37
09. On the Battelfield 07:23
10. My Way 05:13
11. New World 04:13
12. I Kissed Her 05:17
13. Perverted Love 05:48
14. White Angel 05:18
Black Journey 1 CD2
01. Shes the Devil 04:44
02. Menschenbrecher 04:44
03. You Dont Deserve Me 03:41
04. Injustice 04:17
05. Stay with Me 05:40
06. Warriors from Outa Space 04:13
07. Engelstod 04:38
08. Pull the Trigger 04:31
09. Eiszeit 04:25
10. Why Me 05:26
11. Out of the Dark 05:03
12. Be Like Me 03:44
13. Pull the Trigger (Remixed by Unheilig) 06:12
14. Rockstar (Album Version) 03:40
15. Animal (Re-Loaded) 05:14
16. Amok 05:22
Discogs
Код:
Exact Audio Copy V0.99 prebeta 5 from 4. May 2009
Отчёт EAC об извлечении, выполненном 9. апреля 2011, 11:45
Terminal Choice / Black Journey 3 (CD1)
Дисковод: TSSTcorpCDDVDW TS-L632H   Adapter: 0  ID: 0
Режим чтения                 : Достоверность
Использование точного потока : Да
Отключение кэша аудио        : Да
Использование указателей C2  : Нет
Коррекция смещения при чтении                     : 6
Способность читать области Lead-in и Lead-out     : Нет
Заполнение пропущенных сэмплов тишиной            : Да
Удаление блоков с тишиной в начале и конце        : Нет
При вычислениях CRC использовались нулевые сэмплы : Да
Интерфейс                                         : Встроенный Win32-интерфейс для Win NT/2000
Выходной формат          : Пользовательский кодировщик
Выбранный битрейт        : 1024 kBit/s
Качество                 : Высокий
Добавление ID3-тэга      : Нет
Утилита сжатия           : C:\Program Files\Exact Audio Copy\FLAC\FLAC.EXE
Дополнительные параметры : -6 -V -T "ARTIST=%a" -T "TITLE=%t" -T "ALBUM=%g" -T "DATE=%y" -T "TRACKNUMBER=%n" -T "GENRE=%m" -T "COMMENT=%e" %s -o %d
TOC извлечённого CD
     Трек |   Старт  | Длительность | Начальный сектор | Конечный сектор
    ---------------------------------------------------------------------
       1  |  0:00.00 |    6:46.53   |           0      |      30502
       2  |  6:46.53 |    4:42.51   |       30503      |      51703
       3  | 11:29.29 |    5:07.55   |       51704      |      74783
       4  | 16:37.09 |    4:49.45   |       74784      |      96503
       5  | 21:26.54 |    5:50.16   |       96504      |     122769
       6  | 27:16.70 |    6:04.18   |      122770      |     150087
       7  | 33:21.13 |    4:46.62   |      150088      |     171599
       8  | 38:08.00 |    5:36.73   |      171600      |     196872
       9  | 43:44.73 |    7:22.35   |      196873      |     230057
      10  | 51:07.33 |    5:12.39   |      230058      |     253496
      11  | 56:19.72 |    4:12.68   |      253497      |     272464
      12  | 60:32.65 |    5:17.22   |      272465      |     296261
      13  | 65:50.12 |    5:48.21   |      296262      |     322382
      14  | 71:38.33 |    5:17.43   |      322383      |     346200
Характеристики диапазона извлечения и сообщения об ошибках
Выбранный диапазон
     Имя файла C:\Users\Алексей\Desktop\iPOD\Terminal Choice - Black Journey 3 (CD1).wav
     Пиковый уровень 97.5 %
     Качество диапазона 99.9 %
     CRC теста 573F3E1F
     CRC копии 573F3E1F
     Копирование... OK
Ошибок не произошло
AccurateRip: сводка
Трек  1  нет в базе данных
Трек  2  нет в базе данных
Трек  3  нет в базе данных
Трек  4  нет в базе данных
Трек  5  нет в базе данных
Трек  6  нет в базе данных
Трек  7  нет в базе данных
Трек  8  нет в базе данных
Трек  9  нет в базе данных
Трек 10  нет в базе данных
Трек 11  нет в базе данных
Трек 12  нет в базе данных
Трек 13  нет в базе данных
Трек 14  нет в базе данных
Ни одного трека нет в базе AccurateRip
Конец отчёта
Код:
Exact Audio Copy V0.99 prebeta 5 from 4. May 2009
Отчёт EAC об извлечении, выполненном 9. апреля 2011, 12:40
Terminal Choice / Black Journey 3 (CD 2)
Дисковод: TSSTcorpCDDVDW TS-L632H   Adapter: 0  ID: 0
Режим чтения                 : Достоверность
Использование точного потока : Да
Отключение кэша аудио        : Да
Использование указателей C2  : Нет
Коррекция смещения при чтении                     : 6
Способность читать области Lead-in и Lead-out     : Нет
Заполнение пропущенных сэмплов тишиной            : Да
Удаление блоков с тишиной в начале и конце        : Нет
При вычислениях CRC использовались нулевые сэмплы : Да
Интерфейс                                         : Встроенный Win32-интерфейс для Win NT/2000
Выходной формат          : Пользовательский кодировщик
Выбранный битрейт        : 1024 kBit/s
Качество                 : Высокий
Добавление ID3-тэга      : Нет
Утилита сжатия           : C:\Program Files\Exact Audio Copy\FLAC\FLAC.EXE
Дополнительные параметры : -6 -V -T "ARTIST=%a" -T "TITLE=%t" -T "ALBUM=%g" -T "DATE=%y" -T "TRACKNUMBER=%n" -T "GENRE=%m" -T "COMMENT=%e" %s -o %d
TOC извлечённого CD
     Трек |   Старт  | Длительность | Начальный сектор | Конечный сектор
    ---------------------------------------------------------------------
       1  |  0:00.00 |    4:44.30   |           0      |      21329
       2  |  4:44.30 |    4:44.23   |       21330      |      42652
       3  |  9:28.53 |    3:40.47   |       42653      |      59199
       4  | 13:09.25 |    4:16.44   |       59200      |      78443
       5  | 17:25.69 |    5:40.30   |       78444      |     103973
       6  | 23:06.24 |    4:13.30   |      103974      |     122978
       7  | 27:19.54 |    4:38.20   |      122979      |     143848
       8  | 31:57.74 |    4:30.37   |      143849      |     164135
       9  | 36:28.36 |    4:24.64   |      164136      |     183999
      10  | 40:53.25 |    5:26.21   |      184000      |     208470
      11  | 46:19.46 |    5:03.01   |      208471      |     231196
      12  | 51:22.47 |    3:43.44   |      231197      |     247965
      13  | 55:06.16 |    6:11.53   |      247966      |     275843
      14  | 61:17.69 |    3:39.69   |      275844      |     292337
      15  | 64:57.63 |    5:14.12   |      292338      |     315899
      16  | 70:12.00 |    5:21.60   |      315900      |     340034
Характеристики диапазона извлечения и сообщения об ошибках
Выбранный диапазон
     Имя файла C:\Users\Алексей\Desktop\iPOD\Terminal Choice - Black Journey 3 (CD 2).wav
     Пиковый уровень 97.5 %
     Качество диапазона 100.0 %
     CRC теста 1F271154
     CRC копии 1F271154
     Копирование... OK
Ошибок не произошло
AccurateRip: сводка
Трек  1  нет в базе данных
Трек  2  нет в базе данных
Трек  3  нет в базе данных
Трек  4  нет в базе данных
Трек  5  нет в базе данных
Трек  6  нет в базе данных
Трек  7  нет в базе данных
Трек  8  нет в базе данных
Трек  9  нет в базе данных
Трек 10  нет в базе данных
Трек 11  нет в базе данных
Трек 12  нет в базе данных
Трек 13  нет в базе данных
Трек 14  нет в базе данных
Трек 15  нет в базе данных
Трек 16  нет в базе данных
Ни одного трека нет в базе AccurateRip
Конец отчёта
Код:
REM GENRE "EBM Electro"
REM DATE 2011
REM DISCID CB12080E
REM COMMENT "ExactAudioCopy v0.99pb5"
PERFORMER "Terminal Choice"
TITLE "Black Journey 3 (CD1)"
FILE "Terminal Choice - Black Journey 3 (CD1).flac" WAVE
  TRACK 01 AUDIO
    TITLE "The Saviour"
    PERFORMER "Terminal Choice"
    INDEX 01 00:00:00
  TRACK 02 AUDIO
    TITLE "No Chance (Anger Version)"
    PERFORMER "Terminal Choice"
    INDEX 00 06:44:54
    INDEX 01 06:46:53
  TRACK 03 AUDIO
    TITLE "Animal"
    PERFORMER "Terminal Choice"
    INDEX 00 11:27:30
    INDEX 01 11:29:29
  TRACK 04 AUDIO
    TITLE "Armageddon"
    PERFORMER "Terminal Choice"
    INDEX 00 16:35:10
    INDEX 01 16:37:09
  TRACK 05 AUDIO
    TITLE "In Your Soul"
    PERFORMER "Terminal Choice"
    INDEX 00 21:24:55
    INDEX 01 21:26:54
  TRACK 06 AUDIO
    TITLE "Human Hunter"
    PERFORMER "Terminal Choice"
    INDEX 00 27:14:71
    INDEX 01 27:16:70
  TRACK 07 AUDIO
    TITLE "Universe Of Love"
    PERFORMER "Terminal Choice"
    INDEX 00 33:19:14
    INDEX 01 33:21:13
  TRACK 08 AUDIO
    TITLE "Time"
    PERFORMER "Terminal Choice"
    INDEX 00 38:06:01
    INDEX 01 38:08:00
  TRACK 09 AUDIO
    TITLE "On The Battlefield"
    PERFORMER "Terminal Choice"
    INDEX 00 43:42:74
    INDEX 01 43:44:73
  TRACK 10 AUDIO
    TITLE "My Way"
    PERFORMER "Terminal Choice"
    INDEX 00 51:05:34
    INDEX 01 51:07:33
  TRACK 11 AUDIO
    TITLE "New World"
    PERFORMER "Terminal Choice"
    INDEX 00 56:17:73
    INDEX 01 56:19:72
  TRACK 12 AUDIO
    TITLE "I Kissed Her"
    PERFORMER "Terminal Choice"
    INDEX 00 60:30:66
    INDEX 01 60:32:65
  TRACK 13 AUDIO
    TITLE "Perverted Love"
    PERFORMER "Terminal Choice"
    INDEX 00 65:48:13
    INDEX 01 65:50:12
  TRACK 14 AUDIO
    TITLE "White Angel"
    PERFORMER "Terminal Choice"
    INDEX 00 71:36:34
    INDEX 01 71:38:33
Код:
REM GENRE "EBM Electro"
REM DATE 2011
REM DISCID FB11B510
REM COMMENT "ExactAudioCopy v0.99pb5"
PERFORMER "Terminal Choice"
TITLE "Black Journey 3 (CD 2) "
FILE "Terminal Choice - Black Journey 3 (CD 2).flac" WAVE
  TRACK 01 AUDIO
    TITLE "She's the devil"
    PERFORMER "Terminal Choice"
    INDEX 01 00:00:00
  TRACK 02 AUDIO
    TITLE "Menschenbrecher"
    PERFORMER "Terminal Choice"
    INDEX 00 04:42:31
    INDEX 01 04:44:30
  TRACK 03 AUDIO
    TITLE "You don't deserve me"
    PERFORMER "Terminal Choice"
    INDEX 00 09:26:54
    INDEX 01 09:28:53
  TRACK 04 AUDIO
    TITLE "Injustice"
    PERFORMER "Terminal Choice"
    INDEX 00 13:07:26
    INDEX 01 13:09:25
  TRACK 05 AUDIO
    TITLE "Stay with me"
    PERFORMER "Terminal Choice"
    INDEX 00 17:23:70
    INDEX 01 17:25:69
  TRACK 06 AUDIO
    TITLE "Warriors from outa space"
    PERFORMER "Terminal Choice"
    INDEX 00 23:04:25
    INDEX 01 23:06:24
  TRACK 07 AUDIO
    TITLE "Engelstod"
    PERFORMER "Terminal Choice"
    INDEX 00 27:17:55
    INDEX 01 27:19:54
  TRACK 08 AUDIO
    TITLE "Pull the trigger"
    PERFORMER "Terminal Choice"
    INDEX 00 31:56:00
    INDEX 01 31:57:74
  TRACK 09 AUDIO
    TITLE "Eiszeit"
    PERFORMER "Terminal Choice"
    INDEX 00 36:26:37
    INDEX 01 36:28:36
  TRACK 10 AUDIO
    TITLE "Why me ?"
    PERFORMER "Terminal Choice"
    INDEX 00 40:51:26
    INDEX 01 40:53:25
  TRACK 11 AUDIO
    TITLE "Out of the dark"
    PERFORMER "Terminal Choice"
    INDEX 00 46:17:47
    INDEX 01 46:19:46
  TRACK 12 AUDIO
    TITLE "Be like me"
    PERFORMER "Terminal Choice"
    INDEX 00 51:20:48
    INDEX 01 51:22:47
  TRACK 13 AUDIO
    TITLE "Pull the trigger (Remix by Unheilig)"
    PERFORMER "Terminal Choice"
    INDEX 00 55:04:17
    INDEX 01 55:06:16
  TRACK 14 AUDIO
    TITLE "Rockstar (Album Version)"
    PERFORMER "Terminal Choice"
    INDEX 00 61:15:70
    INDEX 01 61:17:69
  TRACK 15 AUDIO
    TITLE "Animal"
    PERFORMER "Terminal Choice"
    INDEX 00 64:55:64
    INDEX 01 64:57:63
  TRACK 16 AUDIO
    TITLE "Amok"
    PERFORMER "Terminal Choice"
    INDEX 00 70:10:01
    INDEX 01 70:12:00
Код:
Black Journey 1
[url=https://fastpic.ru/view/22/2011/0601/9809af314d7eb9ae57480a61ba3e0a50.jpg.html][img]http://i22.fastpic.ru/thumb/2011/0601/50/9809af314d7eb9ae57480a61ba3e0a50.jpeg[/img][/url][url=https://fastpic.ru/view/22/2011/0601/80490b61c22c3b0dcfee1a7a101de7d3.jpg.html][img]http://i22.fastpic.ru/thumb/2011/0601/d3/80490b61c22c3b0dcfee1a7a101de7d3.jpeg[/img][/url][url=https://fastpic.ru/view/22/2011/0601/971440c30420a79a1e1882117b081203.jpg.html][img]http://i22.fastpic.ru/thumb/2011/0601/03/971440c30420a79a1e1882117b081203.jpeg[/img][/url][url=https://fastpic.ru/view/22/2011/0601/c2df461b2f79bdd803f269eb395da8bc.jpg.html][img]http://i22.fastpic.ru/thumb/2011/0601/bc/c2df461b2f79bdd803f269eb395da8bc.jpeg[/img][/url]
[url=https://fastpic.ru/view/22/2011/0601/36b28a3c6e80ab81ebfb51d62a4be754.jpg.html][img]http://i22.fastpic.ru/thumb/2011/0601/54/36b28a3c6e80ab81ebfb51d62a4be754.jpeg[/img][/url][url=https://fastpic.ru/view/22/2011/0601/f0385976710b4d15f25e7a6d882b4ece.jpg.html][img]http://i22.fastpic.ru/thumb/2011/0601/ce/f0385976710b4d15f25e7a6d882b4ece.jpeg[/img][/url][url=https://fastpic.ru/view/22/2011/0601/1414475b04c2264f43ed1033388134f8.jpg.html][img]http://i22.fastpic.ru/thumb/2011/0601/f8/1414475b04c2264f43ed1033388134f8.jpeg[/img][/url][url=https://fastpic.ru/view/22/2011/0601/090db4d33980dcf4629cfdd66db166de.jpg.html][img]http://i22.fastpic.ru/thumb/2011/0601/de/090db4d33980dcf4629cfdd66db166de.jpeg[/img][/url]
Black Journey 2
[url=https://fastpic.ru/view/22/2011/0601/f4db63bdd479e9c3592be7def848cc72.jpg.html][img]http://i22.fastpic.ru/thumb/2011/0601/72/f4db63bdd479e9c3592be7def848cc72.jpeg[/img][/url][url=https://fastpic.ru/view/22/2011/0601/31d911567dc71e64096a66299ee636cd.jpg.html][img]http://i22.fastpic.ru/thumb/2011/0601/cd/31d911567dc71e64096a66299ee636cd.jpeg[/img][/url][url=https://fastpic.ru/view/22/2011/0601/23244f22e245b7b2331421689f82cb39.jpg.html][img]http://i22.fastpic.ru/thumb/2011/0601/39/23244f22e245b7b2331421689f82cb39.jpeg[/img][/url][url=https://fastpic.ru/view/22/2011/0601/e51c1f3dd7cffb2f9e6734fd21fa4487.jpg.html][img]http://i22.fastpic.ru/thumb/2011/0601/87/e51c1f3dd7cffb2f9e6734fd21fa4487.jpeg[/img][/url]
[url=https://fastpic.ru/view/22/2011/0601/bc6dccea86065b8776906c5024fe9538.jpg.html][img]http://i22.fastpic.ru/thumb/2011/0601/38/bc6dccea86065b8776906c5024fe9538.jpeg[/img][/url][url=https://fastpic.ru/view/22/2011/0601/5d8a768e975cc325a103ff37ae7829dc.jpg.html][img]http://i22.fastpic.ru/thumb/2011/0601/dc/5d8a768e975cc325a103ff37ae7829dc.jpeg[/img][/url][url=https://fastpic.ru/view/22/2011/0601/0acaa0d6a469b11543ab5535bbc6d172.jpg.html][img]http://i22.fastpic.ru/thumb/2011/0601/72/0acaa0d6a469b11543ab5535bbc6d172.jpeg[/img][/url][url=https://fastpic.ru/view/22/2011/0601/0a72097f448a2520d4720ad6d30e431d.jpg.html][img]http://i22.fastpic.ru/thumb/2011/0601/1d/0a72097f448a2520d4720ad6d30e431d.jpeg[/img][/url]
Black Journey 3
[url=https://fastpic.ru/view/22/2011/0601/457e5550a333df71296a164068d06e61.jpg.html][img]http://i22.fastpic.ru/thumb/2011/0601/61/457e5550a333df71296a164068d06e61.jpeg[/img][/url][url=https://fastpic.ru/view/22/2011/0601/b07251820f583e518ed2cf394c66271c.jpg.html][img]http://i22.fastpic.ru/thumb/2011/0601/1c/b07251820f583e518ed2cf394c66271c.jpeg[/img][/url][url=https://fastpic.ru/view/22/2011/0601/d177d71ea5ddbf571fcaaf8acebd52df.jpg.html][img]http://i22.fastpic.ru/thumb/2011/0601/df/d177d71ea5ddbf571fcaaf8acebd52df.jpeg[/img][/url][url=https://fastpic.ru/view/22/2011/0601/ef107d502791d60176219213fd720714.jpg.html][img]http://i22.fastpic.ru/thumb/2011/0601/14/ef107d502791d60176219213fd720714.jpeg[/img][/url]
[url=https://fastpic.ru/view/22/2011/0601/479b4c05f0a30f4b090a33a763b75dfb.jpg.html][img]http://i22.fastpic.ru/thumb/2011/0601/fb/479b4c05f0a30f4b090a33a763b75dfb.jpeg[/img][/url][url=https://fastpic.ru/view/22/2011/0601/18c6f3fa2899a315fe36c3e64df18c30.jpg.html][img]http://i22.fastpic.ru/thumb/2011/0601/30/18c6f3fa2899a315fe36c3e64df18c30.jpeg[/img][/url][url=https://fastpic.ru/view/22/2011/0601/c3b6c15c140c5a9f7b066a63a0b55c72.jpg.html][img]http://i22.fastpic.ru/thumb/2011/0601/72/c3b6c15c140c5a9f7b066a63a0b55c72.jpeg[/img][/url][url=https://fastpic.ru/view/22/2011/0601/e6f70dd9560ea5b5a068f4649da53305.jpg.html][img]http://i22.fastpic.ru/thumb/2011/0601/05/e6f70dd9560ea5b5a068f4649da53305.jpeg[/img][/url]
Black Journey 1 CD 1:
Tracks 1-13 originally released on "Black Past" album.
Track 14 originally released on "Tape 1 Terminal Choice 1993" tape.
Track 15 originally released on "Tape 3 Facets Of Pain 1994" tape.
Black Journey 1 CD 2:
Tracks 1-4 originally released on "Totes Fleisch" EP.
Tracks 5-10 original released on "Totes Fleisch-Remixes" EP.
Track 11 original released on "Tape 2 Nightmare 1994" tape.
Track 12 original released on "Tape 3 Facets Of Pain 1994" tape
Tracks 13-14 original released on "Tape 4 Degenerated Inclinations 1994" tape.
Tracks 15-16 original released on "Reloaded" album.
Black Journey 2 CD 1:
Tracks 1-15 original released on "Navigator" album.
Track 16 original released on "Awake The Machines vol. 3" compilation.
track 17 original released on "No Chance" EP.
Black Journey 2 CD 2:
Tracks 1-10 original released on "Venus" EP.
Track 11 original released on "Reloaded" album.
Tracks 12-13 original released on "Fading" EP.
track 14 original released on "Animal" EP.
Black Journey 3 CD 1:
Tracks 1-13 original released on "Ominous Future" album.
Track 14 original released on "Machineries Of Joy" compilation.
Black Journey 3 CD 2:
Tracks 1-12 original released on "Menschenbrecher" album.
Tracks 13,15 original released on "Reloaded" album.
Track 14 original released on "Rockstar" EP.
Track 16 original released on "Menschbrecher Bonus" EP.
Выражаю благодарность kergarn`у за HQ scans!
Правила, инструкции, FAQ!!!
Торрент  Добавлен [26 июн 2020, 17:27] Скачать торрент Магнет ссылка
Скачать торрент
[ Размер 20.93 КБ / Просмотров 6 ]

Статус
Проверен 
 
Размер  3.01 ГБ
Приватный: Нет (DHT включён)
.torrent скачан  0
 


     Отправить личное сообщение
   
Страница 1 из 1
Показать сообщения за:  Поле сортировки  
Начать новую тему Ответить на тему


Сейчас этот форум просматривают: нет зарегистрированных пользователей и гости: 0


Вы не можете начинать темы
Вы не можете отвечать на сообщения
Вы не можете редактировать свои сообщения
Вы не можете удалять свои сообщения
Вы не можете добавлять вложения

Перейти:  
cron