Начать новую тему Ответить на тему
Статистика раздачи
Размер: 335.37 МБ | Добавлен: 26 июн 2020, 17:23 | Скачали: 0
Сидеров: 0  [0 байт/сек]    Личеров: 0  [0 байт/сек]
Пред. тема | След. тема 

Автор
Сообщение

СообщениеДобавлено: 26 июн 2020, 17:23 

Ответить с цитатой 

C-Tec - Darker
Жанр: EBM, Industrial
Год выпуска диска: 1997
Производитель диска: Бельгия
Аудио кодек: FLAC
Тип рипа: image+.cue
Битрейт аудио: lossless
Продолжительность: 42:12.25
Трэклист:
01. Random
02. Flowing
03. Foetal
04. Silent Voices
05. Being Nothing
06. The Lost
07. Stateless
08. Shifty IV
09. Epitaph
Небольшая модификация названия, изменение состава, и общее изменение музыкальной стилистики - это далеко не всё, что можно сказать о новом альбоме C-Tec. Группа наконец избавилась от названия The Cyber-Tec Project, унаследованного от давшего им рождение лэйбла в пользу сокращённой версии имени. Джонатан Шарп (Jonathan Sharp), более известный своей сольной работой, покинул проект и был заменён Марком Хилом (Marc Heal) из Cubanate. Наконец, влияния старой школы ebm совершенно исчезли, уступив место многослойной drum'n'bass основе. В очередной раз большую часть вокальных партий исполняет Жан-Люк ДеМейер (Jean-Luc DeMeyer), но в этом случае он отказывается от самобичующих текстов в пользу более откровенного и насильственного подхода. Наверное наиболее странным является то, что, слышавший дебютный EP два года назад, человек понимает, что C-Tec не имеет ничего общего со своим предком. Вместо этого группа прошла всевозможные трансформации и вышла из состояния кокона в более плотный, скоростной и бледноватый проект, который даже осчастливил Северную Америку широко освещённым турне. Прекратятся ли эти чудеса?
Информация взята с http://industrialreviews.ru/reviews/main.php?mode=review&id=2498
Код:
Exact Audio Copy V0.99 prebeta 4 from 23. January 2008
Отчёт EAC об извлечении, выполненном 8. февраля 2008, 22:33
C-Tec / Darker
Дисковод: PIONEER DVD-RW  DVR-111D   Adapter: 0  ID: 0
Режим чтения                 : Достоверность
Использование точного потока : Да
Отключение кэша аудио        : Да
Использование указателей C2  : Нет
Коррекция смещения при чтении                     : 48
Способность читать области Lead-in и Lead-out     : Нет
Заполнение пропущенных сэмплов тишиной            : Да
Удаление блоков с тишиной в начале и конце        : Нет
При вычислениях CRC использовались нулевые сэмплы : Да
Интерфейс                                         : Встроенный Win32-интерфейс для Win NT/2000
Выходной формат          : Пользовательский кодировщик
Выбранный битрейт        : 1024 kBit/s
Качество                 : Высокий
Добавление ID3-тэга      : Нет
Утилита сжатия           : C:\Program Files\Exact Audio Copy\FLAC\FLAC.EXE
Дополнительные параметры : -8 -V -T "ARTIST=%a" -T "TITLE=%t" -T "ALBUM=%g" -T "DATE=%y" -T "TRACKNUMBER=%n" -T "GENRE=%m" -T "COMMENT=%e" %s -o %d
TOC извлечённого CD
     Трек |   Старт  | Длительность | Начальный сектор | Конечный сектор
    ---------------------------------------------------------------------
       1  |  0:00.00 |    4:53.20   |           0      |      21994
       2  |  4:53.20 |    8:40.38   |       21995      |      61032
       3  | 13:33.58 |    5:46.70   |       61033      |      87052
       4  | 19:20.53 |    3:39.41   |       87053      |     103518
       5  | 23:00.19 |    5:07.55   |      103519      |     126598
       6  | 28:07.74 |    4:59.23   |      126599      |     149046
       7  | 33:07.22 |    5:09.25   |      149047      |     172246
       8  | 38:16.47 |    3:55.53   |      172247      |     189924
       9  | 42:12.25 |    6:23.06   |      189925      |     218655
Характеристики диапазона извлечения и сообщения об ошибках
Выбранный диапазон
     Имя файла D:\123\NEW UNREALESED\C-Tec - Darker [1997]\C-Tec - Darker.wav
     Пиковый уровень 97.7 %
     Качество диапазона 100.0 %
     CRC теста 1FAE2F7E
     CRC копии 1FAE2F7E
     Копирование... OK
Ошибок не произошло
AccurateRip: сводка
Трек  1  точность не определена (достоверность 2)  [ECFE40D0], AccurateRip вернул [71E1BEA8]
Трек  2  точность не определена (достоверность 2)  [F8EFE54D], AccurateRip вернул [B9B5EB91]
Трек  3  точность не определена (достоверность 2)  [5804CE1B], AccurateRip вернул [73CCA43F]
Трек  4  точность не определена (достоверность 2)  [220FF0BA], AccurateRip вернул [7AF99FC2]
Трек  5  точность не определена (достоверность 2)  [F08462B5], AccurateRip вернул [A738F76A]
Трек  6  точность не определена (достоверность 2)  [DCDB0CD6], AccurateRip вернул [D979EB41]
Трек  7  точность не определена (достоверность 2)  [10A251F7], AccurateRip вернул [E6372456]
Трек  8  точность не определена (достоверность 2)  [C303EEF1], AccurateRip вернул [860F4572]
Трек  9  точность не определена (достоверность 2)  [97C98D1E], AccurateRip вернул [1EE4FFF6]
Ни один трек не прошёл проверки на точность
В вашей базе может быть иной вариант штамповки диска
Конец отчёта
AUDIOCHECKER v2.0 beta (build 457) - by Dester - opdester@freemail.hu
~~~~~~~~~~~~~~~~~~~~~~~~~~~~~~~~~~
-=== DO NOT EDIT THIS FILE! ===-
Path: ...\C-Tec - Darker [1997]
1 -=- C-Tec - Darker.flac -=- CDDA (100%)
201439604
Правила, инструкции, FAQ!!!
Торрент  Добавлен [26 июн 2020, 17:23] Скачать торрент Магнет ссылка
Скачать торрент
[ Размер 13.73 КБ / Просмотров 14 ]

Статус
Проверен 
 
Размер  335.37 МБ
Приватный: Нет (DHT включён)
.torrent скачан  0
 


     Отправить личное сообщение
   
Страница 1 из 1
Показать сообщения за:  Поле сортировки  
Начать новую тему Ответить на тему


Сейчас этот форум просматривают: нет зарегистрированных пользователей и гости: 0


Вы не можете начинать темы
Вы не можете отвечать на сообщения
Вы не можете редактировать свои сообщения
Вы не можете удалять свои сообщения
Вы не можете добавлять вложения

Перейти:  
cron