Начать новую тему Ответить на тему
Статистика раздачи
Размер: 404.18 МБ | Добавлен: 26 июн 2020, 17:15 | Скачали: 0
Сидеров: 0  [0 байт/сек]    Личеров: 0  [0 байт/сек]
Пред. тема | След. тема 

Автор
Сообщение

СообщениеДобавлено: 26 июн 2020, 17:15 

Ответить с цитатой 

C-Tec - Darker
Лэйбл: Wax Trax! Records, TVT Records
Каталог#: TVT 7252-2, TVT 7252-2
Жанр: EBM, Industrial
Год выпуска диска: 1997
Производитель диска: США
Аудио кодек: FLAC
Тип рипа: image+.cue
Битрейт аудио: lossless
Продолжительность: 48:38
______________________________
Трэклист:
1 Random (4:55)
2 Flowing (8:41)
3 Foetal (5:47)
4 Silent Voices (3:39)
5 Being Nothing (5:08)
6 The Lost (4:59)
7 Stateless (5:09)
8 Shift IV (3:36)
9 Epitaph (6:23)
Доп. информация:
http://www.discogs.com/C-Tec-Darker/release/65118
+ СКАНЫ 600 DPI
Код:
Exact Audio Copy V0.99 prebeta 5 from 4. May 2009
EAC extraction logfile from 4. July 2009, 0:40
C-Tec / Darker
Used drive  : Optiarc DVD RW AD-7240S   Adapter: 0  ID: 1
Read mode               : Secure
Utilize accurate stream : Yes
Defeat audio cache      : Yes
Make use of C2 pointers : No
Read offset correction                      : 48
Overread into Lead-In and Lead-Out          : No
Fill up missing offset samples with silence : Yes
Delete leading and trailing silent blocks   : No
Null samples used in CRC calculations       : Yes
Used interface                              : Installed external ASPI interface
Used output format              : User Defined Encoder
Selected bitrate                : 1024 kBit/s
Quality                         : High
Add ID3 tag                     : No
Command line compressor         : C:\Program Files\Exact Audio Copy\FLAC\FLAC.EXE
Additional command line options : -8 -V -T "ARTIST=%a" -T "TITLE=%t" -T "ALBUM=%g" -T "DATE=%y" -T "TRACKNUMBER=%n" -T "GENRE=%m" -T "COMMENT=%e" %s -o %d
TOC of the extracted CD
     Track |   Start  |  Length  | Start sector | End sector
    ---------------------------------------------------------
        1  |  0:00.00 |  4:55.56 |         0    |    22180
        2  |  4:55.56 |  8:40.37 |     22181    |    61217
        3  | 13:36.18 |  5:46.66 |     61218    |    87233
        4  | 19:23.09 |  3:39.40 |     87234    |   103698
        5  | 23:02.49 |  5:07.56 |    103699    |   126779
        6  | 28:10.30 |  4:59.22 |    126780    |   149226
        7  | 33:09.52 |  5:09.21 |    149227    |   172422
        8  | 38:18.73 |  3:55.51 |    172423    |   190098
        9  | 42:14.49 |  6:22.72 |    190099    |   218820
Range status and errors
Selected range
     Filename D:\_EAC_Ripped\C-Tec - Darker.wav
     Peak level 100.0 %
     Range quality 99.9 %
     Test CRC F50E765D
     Copy CRC F50E765D
     Copy OK
No errors occurred
AccurateRip summary
Track  1  accurately ripped (confidence 17)  [648F48B8]
Track  2  accurately ripped (confidence 17)  [59BB08E5]
Track  3  accurately ripped (confidence 17)  [45CCB6CF]
Track  4  accurately ripped (confidence 16)  [803CA8BE]
Track  5  accurately ripped (confidence 16)  [5960C7DC]
Track  6  accurately ripped (confidence 17)  [C2C76CF2]
Track  7  accurately ripped (confidence 16)  [C4EBE38D]
Track  8  accurately ripped (confidence 16)  [E4D5721B]
Track  9  accurately ripped (confidence 17)  [69F930C3]
All tracks accurately ripped
End of status report
Правила, инструкции, FAQ!!!
Торрент  Добавлен [26 июн 2020, 17:15] Скачать торрент Магнет ссылка
Скачать торрент
[ Размер 16.75 КБ / Просмотров 12 ]

Статус
Проверен 
 
Размер  404.18 МБ
Приватный: Нет (DHT включён)
.torrent скачан  0
 


     Отправить личное сообщение
   
Страница 1 из 1
Показать сообщения за:  Поле сортировки  
Начать новую тему Ответить на тему


Сейчас этот форум просматривают: нет зарегистрированных пользователей и гости: 0


Вы не можете начинать темы
Вы не можете отвечать на сообщения
Вы не можете редактировать свои сообщения
Вы не можете удалять свои сообщения
Вы не можете добавлять вложения

Перейти:  
cron