Начать новую тему Ответить на тему
Статистика раздачи
Размер: 405.64 МБ | Добавлен: 26 июн 2020, 17:22 | Скачали: 0
Сидеров: 0  [0 байт/сек]    Личеров: 0  [0 байт/сек]
Пред. тема | След. тема 

Автор
Сообщение

СообщениеДобавлено: 26 июн 2020, 17:22 

Ответить с цитатой 

C-Tec - Cut
Жанр: EBM, Industrial
Год выпуска диска: 2000
Производитель диска: Бельгия
Аудио кодек: FLAC
Тип рипа: image+.cue
Битрейт аудио: lossless
Продолжительность: 47:35.52
Трэклист:
01. Brutal
02. I Die Tomorrow
03. Gesellschaft
04. She Left
05. Stormtrigger
06. Fighter
07. Cut... Lacerate
08. Nightbreed
09. Chosen
10. She Left (French Version)
C-Tec был сформирован как сайд проект в 1995, Жаном Люком Дэмэером (Front 242), Джонатаном Шарпом (New Mind), и Гедом Дэнтоном (Crisis NTI) как The Cyber-Tec Project. Имя было взято с Cyber-Tec Records, каторая издала их первый альбом. Этот EP, также был выпущен на Fifth Column Records в США. После этого релиза, Джонатан Шарп покинул банду (в связи с проблемами со студией Cyber-Tec Records и менеджером Полом Грином), и Марк Хил (Cubanate) присоеденился как полноценный член состава.
Код:
Exact Audio Copy V0.99 prebeta 1 from 25. May 2007
Отчёт EAC об извлечении, выполненном 7. января 2002, 1:09
C-Tec / Cut
Дисковод: PIONEER DVD-RW  DVR-111D   Adapter: 0  ID: 0
Режим чтения                 : Достоверность
Использование точного потока : Да
Отключение кэша аудио        : Да
Использование указателей C2  : Нет
Коррекция смещения при чтении                 : 48
Способность читать области Lead-in и Lead-out : Нет
Заполнение пропущенных сэмплов тишиной        : Да
Удаление блоков с тишиной в начале и конце    : Нет
Интерфейс                                     : Встроенный Win32-интерфейс для Win NT/2000
Выходной формат          : Пользовательский кодировщик
Выбранный битрейт        : 1024 kBit/s
Качество                 : Высокий
Добавление ID3-тэга      : Нет
Утилита сжатия           : C:\Program Files\Exact Audio Copy\FLAC\FLAC.EXE
Дополнительные параметры : -8 -V -T "ARTIST=%a" -T "TITLE=%t" -T "ALBUM=%g" -T "DATE=%y" -T "TRACKNUMBER=%n" -T "GENRE=%m" -T "COMMENT=%e" %s -o %d
TOC извлечённого CD
     Трек |   Старт  | Длительность | Начальный сектор | Конечный сектор
    ---------------------------------------------------------------------
       1  |  0:00.32 |    5:07.70   |          32      |      23126
       2  |  5:08.27 |    5:13.05   |       23127      |      46606
       3  | 10:21.32 |    5:22.50   |       46607      |      70806
       4  | 15:44.07 |    4:23.68   |       70807      |      90599
       5  | 20:08.00 |    4:42.25   |       90600      |     111774
       6  | 24:50.25 |    4:39.42   |      111775      |     132741
       7  | 29:29.67 |    7:57.13   |      132742      |     168529
       8  | 37:27.05 |    4:00.37   |      168530      |     186566
       9  | 41:27.42 |    6:08.10   |      186567      |     214176
      10  | 47:35.52 |    4:22.18   |      214177      |     233844
Характеристики диапазона извлечения и сообщения об ошибках
Выбранный диапазон
     Имя файла D:\123\NEW UNREALESED\C-Tec - Cut [2000]\C-Tec - Cut.wav
     Пиковый уровень 100.0 %
     Качество диапазона 100.0 %
     CRC теста A9DE797E
     CRC копии A9DE797E
     Копирование... OK
Ошибок не произошло
Конец отчёта
AUDIOCHECKER v2.0 beta (build 457) - by Dester - opdester@freemail.hu
~~~~~~~~~~~~~~~~~~~~~~~~~~~~~~~~~~
-=== DO NOT EDIT THIS FILE! ===-
Path: ...\C-Tec - Cut [2000]
1 -=- C-Tec - Cut.flac -=- CDDA (100%)
165672740
Правила, инструкции, FAQ!!!
Торрент  Добавлен [26 июн 2020, 17:22] Скачать торрент Магнет ссылка
Скачать торрент
[ Размер 16.48 КБ / Просмотров 10 ]

Статус
Проверен 
 
Размер  405.64 МБ
Приватный: Нет (DHT включён)
.torrent скачан  0
 


     Отправить личное сообщение
   
Страница 1 из 1
Показать сообщения за:  Поле сортировки  
Начать новую тему Ответить на тему


Сейчас этот форум просматривают: нет зарегистрированных пользователей и гости: 0


Вы не можете начинать темы
Вы не можете отвечать на сообщения
Вы не можете редактировать свои сообщения
Вы не можете удалять свои сообщения
Вы не можете добавлять вложения

Перейти:  
cron