Начать новую тему Ответить на тему
Статистика раздачи
Размер: 563.52 МБ | Добавлен: 26 июн 2020, 16:58 | Скачали: 0
Сидеров: 0  [0 байт/сек]    Личеров: 0  [0 байт/сек]
Пред. тема | След. тема 

Автор
Сообщение

СообщениеДобавлено: 26 июн 2020, 16:58 

Ответить с цитатой 

Various Artists - Counterbalance, Volume One
Жанр: EBM, Industrial, Synthpop
Носитель: CD
Страна-производитель диска: UK
Год издания: 2000
Издатель (лейбл): Inception Records
Номер по каталогу: IRCD-07
Страна: Canada
Аудиокодек: FLAC (*.flac)
Тип рипа: image+.cue
Битрейт аудио: lossless
Продолжительность: 01:15:14
Источник (релизер): Rekhyt
Наличие сканов в содержимом раздачи: нет
Треклист:
1. Cymotec - Flucht v2 (5:17)
2. Icon of Coil - Repeat It (Frequency Mix) (4:36)
3. Flesh Field - Disillusion (5:08)
4. Covenant - Feedback (Club Mix) (4:40)
5. God Module - Evolve (5:33)
6. Individual Totem - W.W.W. (Inception Mix) (5:28)
7. Protocol X - Guilt (5:08)
8. Lost Signal - Torment (5:44)
9. Assemblage 23 - Purgatory (Descending Mix) (5:42)
10. Parallel - Parallax (5:03)
11. Sabotage Q.C.Q.C.? - Who Am I (Apoptygma Berzerk Mix) (4:21)
12. Imperative Reaction - Rift (4:58)
13. Project-X - It's All Gone (Extraction Mix) (5:02)
14. L'Âme Immortelle - Slut (3:56)
15. Massiv In Mensch - In Zeiten Wie Diesen (4:37)
Код:
Exact Audio Copy V1.0 beta 3 from 29. August 2011
EAC extraction logfile from 31. August 2012, 20:08
Various Artists / Counterbalance, Volume One
Used drive  : ATAPI   iHAS424   B   Adapter: 3  ID: 0
Read mode               : Secure
Utilize accurate stream : Yes
Defeat audio cache      : Yes
Make use of C2 pointers : No
Read offset correction                      : 6
Overread into Lead-In and Lead-Out          : No
Fill up missing offset samples with silence : Yes
Delete leading and trailing silent blocks   : No
Null samples used in CRC calculations       : Yes
Used interface                              : Native Win32 interface for Win NT & 2000
Used output format              : User Defined Encoder
Selected bitrate                : 1024 kBit/s
Quality                         : High
Add ID3 tag                     : No
Command line compressor         : C:\Program Files (x86)\Exact Audio Copy\FLAC\FLAC.EXE
Additional command line options : -V -8 -T "Date=%year%" -T "Genre=%genre%" %source%
TOC of the extracted CD
     Track |   Start  |  Length  | Start sector | End sector
    ---------------------------------------------------------
        1  |  0:00.00 |  5:16.70 |         0    |    23769
        2  |  5:16.70 |  4:36.27 |     23770    |    44496
        3  |  9:53.22 |  5:08.10 |     44497    |    67606
        4  | 15:01.32 |  4:40.36 |     67607    |    88642
        5  | 19:41.68 |  5:33.15 |     88643    |   113632
        6  | 25:15.08 |  5:28.12 |    113633    |   138244
        7  | 30:43.20 |  5:07.67 |    138245    |   161336
        8  | 35:51.12 |  5:44.16 |    161337    |   187152
        9  | 41:35.28 |  5:42.15 |    187153    |   212817
       10  | 47:17.43 |  5:03.20 |    212818    |   235562
       11  | 52:20.63 |  4:21.27 |    235563    |   255164
       12  | 56:42.15 |  4:57.44 |    255165    |   277483
       13  | 61:39.59 |  5:01.43 |    277484    |   300101
       14  | 66:41.27 |  3:56.35 |    300102    |   317836
       15  | 70:37.62 |  4:36.69 |    317837    |   338605
Range status and errors
Selected range
     Filename E:\Downloads\Various Artists\Various Artists - Counterbalance, Volume One\Various Artists - Counterbalance, Volume One.wav
     Peak level 100.0 %
     Extraction speed 5.1 X
     Range quality 100.0 %
     Test CRC 20171E96
     Copy CRC 20171E96
     Copy OK
No errors occurred
AccurateRip summary
Track  1  accurately ripped (confidence 2)  [B7601746]  (AR v1)
Track  2  accurately ripped (confidence 2)  [5AB9A594]  (AR v1)
Track  3  accurately ripped (confidence 2)  [B0873C6E]  (AR v1)
Track  4  accurately ripped (confidence 2)  [3E99F23D]  (AR v1)
Track  5  accurately ripped (confidence 2)  [9D15E268]  (AR v1)
Track  6  accurately ripped (confidence 2)  [8780F293]  (AR v1)
Track  7  accurately ripped (confidence 2)  [B8B8547D]  (AR v1)
Track  8  accurately ripped (confidence 2)  [46BD1BAA]  (AR v1)
Track  9  accurately ripped (confidence 2)  [FC3630B8]  (AR v1)
Track 10  accurately ripped (confidence 2)  [0447D0CA]  (AR v1)
Track 11  accurately ripped (confidence 2)  [CB2EE40D]  (AR v1)
Track 12  accurately ripped (confidence 2)  [1846D80D]  (AR v1)
Track 13  accurately ripped (confidence 2)  [E6B57CBF]  (AR v1)
Track 14  accurately ripped (confidence 2)  [003EAFD5]  (AR v1)
Track 15  accurately ripped (confidence 2)  [352C30F7]  (AR v1)
All tracks accurately ripped
End of status report
==== Log checksum 4409CA90486A414AB034BFC187F488BAF4AA0444F71BE71E5B635F2386303CDE ====
Код:
REM DATE 2000
REM DISCID CA11A20F
REM COMMENT "ExactAudioCopy v1.0b3"
PERFORMER "Various Artists"
TITLE "Counterbalance, Volume One"
FILE "Various Artists - Counterbalance, Volume One.flac" WAVE
  TRACK 01 AUDIO
    TITLE "Flucht v2"
    PERFORMER "Cymotec"
    FLAGS DCP
    INDEX 01 00:00:00
  TRACK 02 AUDIO
    TITLE "Repeat It (Frequency Mix)"
    PERFORMER "Icon of Coil"
    FLAGS DCP
    INDEX 01 05:16:70
  TRACK 03 AUDIO
    TITLE "Disillusion"
    PERFORMER "Flesh Field"
    FLAGS DCP
    INDEX 01 09:53:22
  TRACK 04 AUDIO
    TITLE "Feedback (Club Mix)"
    PERFORMER "Covenant"
    FLAGS DCP
    INDEX 01 15:01:32
  TRACK 05 AUDIO
    TITLE "Evolve"
    PERFORMER "God Module"
    FLAGS DCP
    INDEX 01 19:41:68
  TRACK 06 AUDIO
    TITLE "W.W.W. (Inception Mix)"
    PERFORMER "Individual Totem"
    FLAGS DCP
    INDEX 01 25:15:08
  TRACK 07 AUDIO
    TITLE "Guilt"
    PERFORMER "Protocol X"
    FLAGS DCP
    INDEX 01 30:43:20
  TRACK 08 AUDIO
    TITLE "Torment"
    PERFORMER "Lost Signal"
    FLAGS DCP
    INDEX 01 35:51:12
  TRACK 09 AUDIO
    TITLE "Purgatory (Descending Mix)"
    PERFORMER "Assemblage 23"
    FLAGS DCP
    INDEX 01 41:35:28
  TRACK 10 AUDIO
    TITLE "Parallax"
    PERFORMER "Parallel"
    FLAGS DCP
    INDEX 01 47:17:43
  TRACK 11 AUDIO
    TITLE "Who Am I (Apoptygma Berzerk Mix)"
    PERFORMER "Sabotage"
    FLAGS DCP
    INDEX 01 52:20:63
  TRACK 12 AUDIO
    TITLE "Rift"
    PERFORMER "Imperative Reaction"
    FLAGS DCP
    INDEX 01 56:42:15
  TRACK 13 AUDIO
    TITLE "It's All Gone (Extraction Mix)"
    PERFORMER "Project-X"
    FLAGS DCP
    INDEX 01 61:39:59
  TRACK 14 AUDIO
    TITLE "Slut"
    PERFORMER "L'Âme Immortelle"
    FLAGS DCP
    INDEX 01 66:41:27
  TRACK 15 AUDIO
    TITLE "In Zeiten Wie Diesen"
    PERFORMER "Massiv In Mensch"
    FLAGS DCP
    INDEX 01 70:37:62
Код:
AUDIOCHECKER v2.0 beta (build 457) - by Dester - opdester@freemail.hu
~~~~~~~~~~~~~~~~~~~~~~~~~~~~~~~~~~
-=== DO NOT EDIT THIS FILE! ===-
Path: ...\Various Artists - Counterbalance, Volume One
1 -=- Various Artists - Counterbalance, Volume One.flac -=- CDDA (100%)
38938580
http://www.discogs.com/Various-Counterbalance-Vol-1/release/119533 (manually put in URL / вручную положить в URL)
Правила, инструкции, FAQ!!!
Торрент  Добавлен [26 июн 2020, 16:58] Скачать торрент Магнет ссылка
Скачать торрент
[ Размер 11.76 КБ / Просмотров 7 ]

Статус
Проверен 
 
Размер  563.52 МБ
Приватный: Нет (DHT включён)
.torrent скачан  0
 


     Отправить личное сообщение
   
Страница 1 из 1
Показать сообщения за:  Поле сортировки  
Начать новую тему Ответить на тему


Сейчас этот форум просматривают: нет зарегистрированных пользователей и гости: 0


Вы не можете начинать темы
Вы не можете отвечать на сообщения
Вы не можете редактировать свои сообщения
Вы не можете удалять свои сообщения
Вы не можете добавлять вложения

Перейти:  
cron