Начать новую тему Ответить на тему
Статистика раздачи
Размер: 764.8 МБ | Добавлен: 26 июн 2020, 17:52 | Скачали: 0
Сидеров: 1  [0 байт/сек]    Личеров: 0  [0 байт/сек]
Пред. тема | След. тема 

Автор
Сообщение

СообщениеДобавлено: 26 июн 2020, 17:52 

Ответить с цитатой 

The Dust Of Basement - Five Become Two (2CD)
Жанр: EBM, Industrial, Synthpop
Год выпуска диска: 2002
Страна: Germany
Аудио кодек: FLAC
Тип рипа: tracks+.cue
Битрейт аудио: lossless
Продолжительность: 00:50:50 + 00:64:00

Трэклист
:

CD1

1. Inside new track
2. Outside flaster mix
3. Desire
4. Come with me
5. Create the silence
6. Constant live remix
7. Turmdrehkran
8. Summer new track
9. Song Of Sorrow
10. Lullaby
11. Genocide
12. Gift moog mix
Код:
Exact Audio Copy V0.99 prebeta 4 from 23. January 2008
Отчёт EAC об извлечении, выполненном 10. октября 2008, 5:49
The Dust Of Basement / Five Become Two
Дисковод: Optiarc DVD RW AD-5200A   Adapter: 0  ID: 0
Режим чтения                 : Достоверность
Использование точного потока : Да
Отключение кэша аудио        : Да
Использование указателей C2  : Нет
Коррекция смещения при чтении                     : 48
Способность читать области Lead-in и Lead-out     : Нет
Заполнение пропущенных сэмплов тишиной            : Да
Удаление блоков с тишиной в начале и конце        : Нет
При вычислениях CRC использовались нулевые сэмплы : Да
Интерфейс                                         : Встроенный Win32-интерфейс для Win NT/2000
Обработка зазоров                                 : Не обнаружено, добавлено к предыдущему треку
Выходной формат          : Пользовательский кодировщик
Выбранный битрейт        : 1024 kBit/s
Качество                 : Высокий
Добавление ID3-тэга      : Нет
Утилита сжатия           : C:\Program Files\Exact Audio Copy\FLAC\FLAC.EXE
Дополнительные параметры : -8 -V -T "ARTIST=%a" -T "TITLE=%t" -T "ALBUM=%g" -T "DATE=%y" -T "TRACKNUMBER=%n" -T "GENRE=%m" -T "COMMENT=%e" %s -o %d
TOC извлечённого CD
     Трек |   Старт  | Длительность | Начальный сектор | Конечный сектор
    ---------------------------------------------------------------------
       1  |  0:00.00 |    5:21.05   |           0      |      24079
       2  |  5:21.05 |    3:19.14   |       24080      |      39018
       3  |  8:40.19 |    4:41.43   |       39019      |      60136
       4  | 13:21.62 |    3:58.26   |       60137      |      78012
       5  | 17:20.13 |    4:20.33   |       78013      |      97545
       6  | 21:40.46 |    4:18.45   |       97546      |     116940
       7  | 25:59.16 |    3:10.38   |      116941      |     131228
       8  | 29:09.54 |    4:11.21   |      131229      |     150074
       9  | 33:21.00 |    4:54.13   |      150075      |     172137
      10  | 38:15.13 |    4:51.09   |      172138      |     193971
      11  | 43:06.22 |    3:56.67   |      193972      |     211738
      12  | 47:03.14 |    3:44.70   |      211739      |     228608
Трек  1
     Имя файла C:\01 – Inside (new track).wav
     Пиковый уровень 73.3 %
     Качество трека 100.0 %
     CRC теста 0CD5FC36
     CRC копии 0CD5FC36
     Копирование... OK
Трек  2
     Имя файла C:\02 – Outside (flaster mix).wav
     Пиковый уровень 63.4 %
     Качество трека 100.0 %
     CRC теста 07C5144E
     CRC копии 07C5144E
     Копирование... OK
Трек  3
     Имя файла C:\03 – Desire.wav
     Пиковый уровень 80.4 %
     Качество трека 99.9 %
     CRC теста A38A8389
     CRC копии A38A8389
     Копирование... OK
Трек  4
     Имя файла C:\04 – Come With.wav
     Пиковый уровень 81.8 %
     Качество трека 100.0 %
     CRC теста 2F09635C
     CRC копии 2F09635C
     Копирование... OK
Трек  5
     Имя файла C:\05 – Create The Silence.wav
     Пиковый уровень 71.9 %
     Качество трека 100.0 %
     CRC теста C2EA4ACD
     CRC копии C2EA4ACD
     Копирование... OK
Трек  6
     Имя файла C:\06 – Constant (remix).wav
     Пиковый уровень 65.5 %
     Качество трека 100.0 %
     CRC теста 611C5A5D
     CRC копии 611C5A5D
     Копирование... OK
Трек  7
     Имя файла C:\07 – Turmdrehkran.wav
     Пиковый уровень 74.6 %
     Качество трека 100.0 %
     CRC теста E872D503
     CRC копии E872D503
     Копирование... OK
Трек  8
     Имя файла C:\08 – Summer (new track).wav
     Пиковый уровень 77.6 %
     Качество трека 100.0 %
     CRC теста A767EDBA
     CRC копии A767EDBA
     Копирование... OK
Трек  9
     Имя файла C:\09 – Song Of Sorrow.wav
     Пиковый уровень 66.1 %
     Качество трека 99.9 %
     CRC теста E97DB255
     CRC копии E97DB255
     Копирование... OK
Трек 10
     Имя файла C:\10 – Lullaby.wav
     Пиковый уровень 69.3 %
     Качество трека 100.0 %
     CRC теста 80F47102
     CRC копии 80F47102
     Копирование... OK
Трек 11
     Имя файла C:\11 – Genocide.wav
     Пиковый уровень 74.7 %
     Качество трека 100.0 %
     CRC теста CF9B088F
     CRC копии CF9B088F
     Копирование... OK
Трек 12
     Имя файла C:\12 – Gift Moog (mix).wav
     Пиковый уровень 65.8 %
     Качество трека 100.0 %
     CRC теста 8053B595
     CRC копии 8053B595
     Копирование... OK
Ошибок не произошло
Конец отчёта
Код:
AUDIOCHECKER v2.0 beta (build 457) - by Dester - opdester@freemail.hu
~~~~~~~~~~~~~~~~~~~~~~~~~~~~~~~~~~
-=== НЕ РЕДАКТИРУЙТЕ ЭТОТ ФАЙЛ! ===-
Путь: ...\Five Become Two
01 -=- 01 – Inside (new track).flac -=- CDDA (100%)
02 -=- 02 – Outside (flaster mix).flac -=- CDDA (100%)
03 -=- 03 – Desire.flac -=- CDDA (100%)
04 -=- 04 – Come With.flac -=- CDDA (100%)
05 -=- 05 – Create The Silence.flac -=- CDDA (100%)
06 -=- 06 – Constant (remix).flac -=- CDDA (100%)
07 -=- 07 – Turmdrehkran.flac -=- CDDA (100%)
08 -=- 08 – Summer (new track).flac -=- CDDA (100%)
09 -=- 09 – Song Of Sorrow.flac -=- CDDA (100%)
10 -=- 10 – Lullaby.flac -=- CDDA (99%)
11 -=- 11 – Genocide.flac -=- CDDA (100%)
12 -=- 12 – Gift Moog (mix).flac -=- CDDA (100%)
Сводка 99,92% CDDA
191955572

CD2

1. Words Of God deep tranquil mix
2. Amok remix 2002
3. Regress
4. Unsuspecting
Tape Introduction
6. Babylon
7. Dlaonvie
8. S I Dy best of mix
9. Herion Angel
10. Fred vom Jupiter
11. S.O.N.O. reaktor 47 remix
12. Floodsam & Jetsam unreleased

Side Projects
13. CALAN.DRA Where did you go
14. WOLFF Totmann
15. REPULSION The things you said
Код:
Exact Audio Copy V0.99 prebeta 4 from 23. January 2008
Отчёт EAC об извлечении, выполненном 9. октября 2008, 14:28
The Dust Of Basement / Five Become Two (1992-2002) - Disc 2
Дисковод: Optiarc DVD RW AD-5200A   Adapter: 0  ID: 0
Режим чтения                 : Достоверность
Использование точного потока : Да
Отключение кэша аудио        : Да
Использование указателей C2  : Нет
Коррекция смещения при чтении                     : 48
Способность читать области Lead-in и Lead-out     : Нет
Заполнение пропущенных сэмплов тишиной            : Да
Удаление блоков с тишиной в начале и конце        : Нет
При вычислениях CRC использовались нулевые сэмплы : Да
Интерфейс                                         : Встроенный Win32-интерфейс для Win NT/2000
Обработка зазоров                                 : Не обнаружено, добавлено к предыдущему треку
Выходной формат          : Пользовательский кодировщик
Выбранный битрейт        : 1024 kBit/s
Качество                 : Высокий
Добавление ID3-тэга      : Нет
Утилита сжатия           : C:\Program Files\Exact Audio Copy\FLAC\FLAC.EXE
Дополнительные параметры : -8 -V -T "ARTIST=%a" -T "TITLE=%t" -T "ALBUM=%g" -T "DATE=%y" -T "TRACKNUMBER=%n" -T "GENRE=%m" -T "COMMENT=%e" %s -o %d
TOC извлечённого CD
     Трек |   Старт  | Длительность | Начальный сектор | Конечный сектор
    ---------------------------------------------------------------------
       1  |  0:00.00 |    8:29.72   |           0      |      38246
       2  |  8:29.72 |    4:44.61   |       38247      |      59607
       3  | 13:14.58 |    4:10.61   |       59608      |      78418
       4  | 17:25.44 |    2:33.39   |       78419      |      89932
       5  | 19:59.08 |    0:12.02   |       89933      |      90834
       6  | 20:11.10 |    4:04.01   |       90835      |     109135
       7  | 24:15.11 |    5:29.00   |      109136      |     133810
       8  | 29:44.11 |    3:54.39   |      133811      |     151399
       9  | 33:38.50 |    5:22.71   |      151400      |     175620
      10  | 39:01.46 |    3:16.30   |      175621      |     190350
      11  | 42:18.01 |    2:54.13   |      190351      |     203413
      12  | 45:12.14 |    3:55.46   |      203414      |     221084
      13  | 49:07.60 |    5:15.05   |      221085      |     244714
      14  | 54:22.65 |    4:51.68   |      244715      |     266607
      15  | 59:14.58 |    4:43.46   |      266608      |     287878
Трек  1
     Имя файла C:\01 – Words of god (Deep Tranquil Mix).wav
     Пиковый уровень 77.9 %
     Качество трека 100.0 %
     CRC теста 2C82B892
     CRC копии 2C82B892
     Копирование... OK
Трек  2
     Имя файла C:\02 – Amok.wav
     Пиковый уровень 65.0 %
     Качество трека 100.0 %
     CRC теста B9961036
     CRC копии B9961036
     Копирование... OK
Трек  3
     Имя файла C:\03 – Regress.wav
     Пиковый уровень 71.3 %
     Качество трека 100.0 %
     CRC теста 68236F6C
     CRC копии 68236F6C
     Копирование... OK
Трек  4
     Имя файла C:\04 – Unsuspecting.wav
     Пиковый уровень 74.9 %
     Качество трека 100.0 %
     CRC теста 0E693652
     CRC копии 0E693652
     Копирование... OK
Трек  5
     Имя файла C:\05 – Tape introduction.wav
     Пиковый уровень 100.0 %
     Качество трека 100.0 %
     CRC теста FC8EABFD
     CRC копии FC8EABFD
     Копирование... OK
Трек  6
     Имя файла C:\06 – Babylon.wav
     Пиковый уровень 84.0 %
     Качество трека 100.0 %
     CRC теста 23EE28B2
     CRC копии 23EE28B2
     Копирование... OK
Трек  7
     Имя файла C:\07 – Dlaonvie (Tape).wav
     Пиковый уровень 80.6 %
     Качество трека 100.0 %
     CRC теста 2CAC4412
     CRC копии 2CAC4412
     Копирование... OK
Трек  8
     Имя файла C:\08 – S I dy (Best Of Mix).wav
     Пиковый уровень 73.8 %
     Качество трека 100.0 %
     CRC теста 395F69E6
     CRC копии 395F69E6
     Копирование... OK
Трек  9
     Имя файла C:\09 – Herion angel.wav
     Пиковый уровень 88.7 %
     Качество трека 100.0 %
     CRC теста 7EFD1C50
     CRC копии 7EFD1C50
     Копирование... OK
Трек 10
     Имя файла C:\10 – Fred vom Jupiter.wav
     Пиковый уровень 83.6 %
     Качество трека 100.0 %
     CRC теста 93C01C19
     CRC копии 93C01C19
     Копирование... OK
Трек 11
     Имя файла C:\11 – S.O.N.O. (Reaktor 47 Remix).wav
     Пиковый уровень 60.4 %
     Качество трека 100.0 %
     CRC теста 27B5A4D0
     CRC копии 27B5A4D0
     Копирование... OK
Трек 12
     Имя файла C:\12 – Floodsam & Jetsam (Unreleased).wav
     Пиковый уровень 69.3 %
     Качество трека 100.0 %
     CRC теста AE058C93
     CRC копии AE058C93
     Копирование... OK
Трек 13
     Имя файла C:\13 – Where did you go (Side Project- Calan.Dra).wav
     Пиковый уровень 76.5 %
     Качество трека 100.0 %
     CRC теста E2A5F90D
     CRC копии E2A5F90D
     Копирование... OK
Трек 14
     Имя файла C:\14 – Totmann (Side Project- Wolff).wav
     Пиковый уровень 82.9 %
     Качество трека 99.9 %
     CRC теста 2F0B4701
     CRC копии 2F0B4701
     Копирование... OK
Трек 15
     Имя файла C:\15 – The things you said (Side Project- Repulsion).wav
     Пиковый уровень 63.8 %
     Качество трека 99.9 %
     CRC теста E982A108
     CRC копии E982A108
     Копирование... OK
Ошибок не произошло
Конец отчёта
Код:
AUDIOCHECKER v2.0 beta (build 457) - by Dester - opdester@freemail.hu
~~~~~~~~~~~~~~~~~~~~~~~~~~~~~~~~~~
-=== НЕ РЕДАКТИРУЙТЕ ЭТОТ ФАЙЛ! ===-
Путь: ...\Five Become Two (1992-2002) - Disc 2
01 -=- 01 – Words of god (Deep Tranquil Mix).flac -=- MPEG (73%)
02 -=- 02 – Amok.flac -=- CDDA (99%)
03 -=- 03 – Regress.flac -=- CDDA (100%)
04 -=- 04 – Unsuspecting.flac -=- MPEG (95%)
05 -=- 05 – Tape introduction.flac -=- CDDA (99%)
06 -=- 06 – Babylon.flac -=- CDDA (100%)
07 -=- 07 – Dlaonvie (Tape).flac -=- CDDA (42%)
08 -=- 08 – S I dy (Best Of Mix).flac -=- CDDA (100%)
09 -=- 09 – Herion angel.flac -=- MPEG (95%)
10 -=- 10 – Fred vom Jupiter.flac -=- MPEG (95%)
11 -=- 11 – S.O.N.O. (Reaktor 47 Remix).flac -=- CDDA (100%)
12 -=- 12 – Floodsam & Jetsam (Unreleased).flac -=- CDDA (100%)
13 -=- 13 – Where did you go (Side Project- Calan.Dra).flac -=- CDDA (99%)
14 -=- 14 – Totmann (Side Project- Wolff).flac -=- CDDA (100%)
15 -=- 15 – The things you said (Side Project- Repulsion).flac -=- CDDA (54%)
Сводка 69,00% CDDA
200787012
Правила, инструкции, FAQ!!!
Торрент  Добавлен [26 июн 2020, 17:52] Скачать торрент Магнет ссылка
Скачать торрент
[ Размер 18.79 КБ / Просмотров 13 ]

Статус
Проверен 
 
Размер  764.8 МБ
Приватный: Нет (DHT включён)
.torrent скачан  0
 


     Отправить личное сообщение
   
Страница 1 из 1
Показать сообщения за:  Поле сортировки  
Начать новую тему Ответить на тему


Сейчас этот форум просматривают: нет зарегистрированных пользователей и гости: 0


Вы не можете начинать темы
Вы не можете отвечать на сообщения
Вы не можете редактировать свои сообщения
Вы не можете удалять свои сообщения
Вы не можете добавлять вложения

Перейти:  
cron