Начать новую тему Ответить на тему
Статистика раздачи
Размер: 550.14 МБ | Добавлен: 26 июн 2020, 21:00 | Скачали: 0
Сидеров: 0  [0 байт/сек]    Личеров: 0  [0 байт/сек]
Пред. тема | След. тема 

Автор
Сообщение

СообщениеДобавлено: 26 июн 2020, 21:00 

Ответить с цитатой 

V/A - Russian Existence - A tribute to Project Pitchfork
Жанр: EBM, Industrial, Synthpop
Год выпуска диска: 2005
Производитель диска: Russia
Аудио кодек: FLAC
Тип рипа: tracks+.cue
Битрейт аудио: lossless
Продолжительность: 75:41
Трэклист:
01. Altera Forma / Antidote 05:20
02. Emily A. Saaen / Jupiter Or Somewhere Out There 05:27
03. The Pulsar / Existence 05:48
04. Slide Show / Requiem 04:27
05. Wavefall / Rescue 04:48
06. Emplosia / Daimonion You Hear Me In Your Dreams 04:49
07. Stillife / Karma Monster 04:42
08. Boxhead / Existence 03:38
09. Aridoland / Teardrop 03:11
10. M.C.D.EAD / Timekiller 05:00
11. Teatr Yada / Pan 04:39
12. Para Bellum / Hunted 04:44
13. Purple Fog Side / Carrion 04:15
14. Inquisitorum / Endzeit 04:36
15. Antisisters / December Sadness 06:17
16. Recently Deceased / Requiem 03:51
Доп. информация:
В раздаче присутствуют сканы
front/back/disk
300DPI tiff
папка scans
Код:
Exact Audio Copy V0.99 prebeta 5 from 4. May 2009
EAC extraction logfile from 17. December 2010, 14:11
Various Artists / Russian Existence - A Tribute To Project Pitchfork
Used drive  : PIONEER DVD-RW  DVR-111D   Adapter: 3  ID: 0
Read mode               : Secure
Utilize accurate stream : Yes
Defeat audio cache      : Yes
Make use of C2 pointers : No
Read offset correction                      : 48
Overread into Lead-In and Lead-Out          : No
Fill up missing offset samples with silence : Yes
Delete leading and trailing silent blocks   : No
Null samples used in CRC calculations       : Yes
Used interface                              : Native Win32 interface for Win NT & 2000
Gap handling                                : Appended to previous track
Used output format              : User Defined Encoder
Selected bitrate                : 768 kBit/s
Quality                         : High
Add ID3 tag                     : No
Command line compressor         : C:\Program Files\Exact Audio Copy\FLAC\FLAC.EXE
Additional command line options : -6 -V -T "ARTIST=%a" -T "TITLE=%t" -T "ALBUM=%g" -T "DATE=%y" -T "TRACKNUMBER=%n" -T "GENRE=%m" -T "COMMENT=%e" %s -o %d
TOC of the extracted CD
     Track |   Start  |  Length  | Start sector | End sector
    ---------------------------------------------------------
        1  |  0:00.00 |  5:20.18 |         0    |    24017
        2  |  5:20.18 |  5:27.54 |     24018    |    48596
        3  | 10:47.72 |  5:48.64 |     48597    |    74760
        4  | 16:36.61 |  4:27.64 |     74761    |    94849
        5  | 21:04.50 |  4:48.33 |     94850    |   116482
        6  | 25:53.08 |  4:49.65 |    116483    |   138222
        7  | 30:42.73 |  4:42.21 |    138223    |   159393
        8  | 35:25.19 |  3:38.65 |    159394    |   175808
        9  | 39:04.09 |  3:11.53 |    175809    |   190186
       10  | 42:15.62 |  5:00.07 |    190187    |   212693
       11  | 47:15.69 |  4:39.43 |    212694    |   233661
       12  | 51:55.37 |  4:44.47 |    233662    |   255008
       13  | 56:40.09 |  4:15.41 |    255009    |   274174
       14  | 60:55.50 |  4:36.37 |    274175    |   294911
       15  | 65:32.12 |  6:17.35 |    294912    |   323221
       16  | 71:49.47 |  3:51.20 |    323222    |   340566
Track  1
     Filename K:\Various Artists - Russian Existence - A Tribute To Project Pitchfork\01.Antidote.wav
     Pre-gap length  0:00:02.00
     Peak level 97.8 %
     Track quality 100.0 %
     Test CRC 44F80AFE
     Copy CRC 44F80AFE
     Accurately ripped (confidence 1)  [1E59AE22]
     Copy OK
Track  2
     Filename K:\Various Artists - Russian Existence - A Tribute To Project Pitchfork\02.Jupiter Or Somewhere Out There.wav
     Peak level 90.9 %
     Track quality 100.0 %
     Test CRC D6B571F8
     Copy CRC D6B571F8
     Cannot be verified as accurate (confidence 1)  [BCBEC36A], AccurateRip returned [F6F1C8E8]
     Copy OK
Track  3
     Filename K:\Various Artists - Russian Existence - A Tribute To Project Pitchfork\03.Existence.wav
     Peak level 96.6 %
     Track quality 100.0 %
     Test CRC 55F780A1
     Copy CRC 55F780A1
     Accurately ripped (confidence 1)  [BC301FF4]
     Copy OK
Track  4
     Filename K:\Various Artists - Russian Existence - A Tribute To Project Pitchfork\04.Requiem.wav
     Peak level 100.0 %
     Track quality 100.0 %
     Test CRC D604CFBC
     Copy CRC D604CFBC
     Accurately ripped (confidence 1)  [9F8A621E]
     Copy OK
Track  5
     Filename K:\Various Artists - Russian Existence - A Tribute To Project Pitchfork\05.Rescue.wav
     Peak level 100.0 %
     Track quality 100.0 %
     Test CRC D8841D7D
     Copy CRC D8841D7D
     Accurately ripped (confidence 1)  [C34BE1D1]
     Copy OK
Track  6
     Filename K:\Various Artists - Russian Existence - A Tribute To Project Pitchfork\06.Daimonion You Hear Me In Your Dreams.wav
     Peak level 93.2 %
     Track quality 99.9 %
     Test CRC CC047570
     Copy CRC CC047570
     Accurately ripped (confidence 1)  [837C71F7]
     Copy OK
Track  7
     Filename K:\Various Artists - Russian Existence - A Tribute To Project Pitchfork\07.Karma Monster.wav
     Peak level 97.7 %
     Track quality 100.0 %
     Test CRC BD9B6F3C
     Copy CRC BD9B6F3C
     Accurately ripped (confidence 1)  [4B5136E0]
     Copy OK
Track  8
     Filename K:\Various Artists - Russian Existence - A Tribute To Project Pitchfork\08.Existence.wav
     Peak level 98.8 %
     Track quality 100.0 %
     Test CRC D5857238
     Copy CRC D5857238
     Accurately ripped (confidence 1)  [0F5D5D9C]
     Copy OK
Track  9
     Filename K:\Various Artists - Russian Existence - A Tribute To Project Pitchfork\09.Teardrop.wav
     Peak level 98.2 %
     Track quality 100.0 %
     Test CRC 1C964AAB
     Copy CRC 1C964AAB
     Accurately ripped (confidence 1)  [444984FC]
     Copy OK
Track 10
     Filename K:\Various Artists - Russian Existence - A Tribute To Project Pitchfork\10.Timekiller.wav
     Peak level 96.6 %
     Track quality 100.0 %
     Test CRC 1B5A3CA8
     Copy CRC 1B5A3CA8
     Accurately ripped (confidence 1)  [B1480CD2]
     Copy OK
Track 11
     Filename K:\Various Artists - Russian Existence - A Tribute To Project Pitchfork\11.Pan.wav
     Peak level 96.6 %
     Track quality 99.9 %
     Test CRC 6553F38F
     Copy CRC 6553F38F
     Accurately ripped (confidence 1)  [703283BD]
     Copy OK
Track 12
     Filename K:\Various Artists - Russian Existence - A Tribute To Project Pitchfork\12.Hunted.wav
     Peak level 96.6 %
     Track quality 100.0 %
     Test CRC AEEDB296
     Copy CRC AEEDB296
     Accurately ripped (confidence 1)  [5C4EFFAC]
     Copy OK
Track 13
     Filename K:\Various Artists - Russian Existence - A Tribute To Project Pitchfork\13.Carrion.wav
     Peak level 89.8 %
     Track quality 100.0 %
     Test CRC 9867C6AE
     Copy CRC 9867C6AE
     Accurately ripped (confidence 1)  [27A9F00B]
     Copy OK
Track 14
     Filename K:\Various Artists - Russian Existence - A Tribute To Project Pitchfork\14.Endzeit.wav
     Peak level 94.4 %
     Track quality 100.0 %
     Test CRC 9A261409
     Copy CRC 9A261409
     Accurately ripped (confidence 1)  [70CAE4B9]
     Copy OK
Track 15
     Filename K:\Various Artists - Russian Existence - A Tribute To Project Pitchfork\15.December Sadness.wav
     Peak level 80.9 %
     Track quality 100.0 %
     Test CRC 7A4DAF7C
     Copy CRC 7A4DAF7C
     Accurately ripped (confidence 1)  [C1C7BB5B]
     Copy OK
Track 16
     Filename K:\Various Artists - Russian Existence - A Tribute To Project Pitchfork\16.Requiem.wav
     Peak level 84.4 %
     Track quality 100.0 %
     Test CRC 5A7309AF
     Copy CRC 5A7309AF
     Accurately ripped (confidence 1)  [6919702F]
     Copy OK
15 track(s) accurately ripped
 1 track(s) could not be verified as accurate
Some tracks could not be verified as accurate
No errors occurred
End of status report
Код:
REM GENRE Electronic
REM DATE 2005
REM DISCID EC11BC10
REM COMMENT "ExactAudioCopy v0.99pb5"
PERFORMER "Various Artists"
TITLE "Russian Existence - A Tribute To Project Pitchfork"
FILE "01.Antidote.wav" WAVE
  TRACK 01 AUDIO
    TITLE "Antidote"
    PERFORMER "Altera Forma"
    INDEX 01 00:00:00
FILE "02.Jupiter Or Somewhere Out There.wav" WAVE
  TRACK 02 AUDIO
    TITLE "Jupiter Or Somewhere Out There"
    PERFORMER "Emily A. Saaen"
    INDEX 01 00:00:00
FILE "03.Existence.wav" WAVE
  TRACK 03 AUDIO
    TITLE "Existence"
    PERFORMER "The Pulsar"
    INDEX 01 00:00:00
FILE "04.Requiem.wav" WAVE
  TRACK 04 AUDIO
    TITLE "Requiem"
    PERFORMER "Slide Show"
    INDEX 01 00:00:00
FILE "05.Rescue.wav" WAVE
  TRACK 05 AUDIO
    TITLE "Rescue"
    PERFORMER "Wavefall"
    INDEX 01 00:00:00
FILE "06.Daimonion You Hear Me In Your Dreams.wav" WAVE
  TRACK 06 AUDIO
    TITLE "Daimonion You Hear Me In Your Dreams"
    PERFORMER "Emplosia"
    INDEX 01 00:00:00
FILE "07.Karma Monster.wav" WAVE
  TRACK 07 AUDIO
    TITLE "Karma Monster"
    PERFORMER "Stillife"
    INDEX 01 00:00:00
FILE "08.Existence.wav" WAVE
  TRACK 08 AUDIO
    TITLE "Existence"
    PERFORMER "Boxhead"
    INDEX 01 00:00:00
FILE "09.Teardrop.wav" WAVE
  TRACK 09 AUDIO
    TITLE "Teardrop"
    PERFORMER "Aridoland"
    INDEX 01 00:00:00
FILE "10.Timekiller.wav" WAVE
  TRACK 10 AUDIO
    TITLE "Timekiller"
    PERFORMER "M.C.D.EAD"
    INDEX 01 00:00:00
FILE "11.Pan.wav" WAVE
  TRACK 11 AUDIO
    TITLE "Pan"
    PERFORMER "Teatr Yada"
    INDEX 01 00:00:00
FILE "12.Hunted.wav" WAVE
  TRACK 12 AUDIO
    TITLE "Hunted"
    PERFORMER "Para Bellum"
    INDEX 01 00:00:00
FILE "13.Carrion.wav" WAVE
  TRACK 13 AUDIO
    TITLE "Carrion"
    PERFORMER "Purple Fog Side"
    INDEX 01 00:00:00
FILE "14.Endzeit.wav" WAVE
  TRACK 14 AUDIO
    TITLE "Endzeit"
    PERFORMER "Inquisitorum"
    INDEX 01 00:00:00
FILE "15.December Sadness.wav" WAVE
  TRACK 15 AUDIO
    TITLE "December Sadness"
    PERFORMER "Antisisters"
    INDEX 01 00:00:00
FILE "16.Requiem.wav" WAVE
  TRACK 16 AUDIO
    TITLE "Requiem"
    PERFORMER "Recently Deceased"
    INDEX 01 00:00:00
Правила, инструкции, FAQ!!!
Торрент  Добавлен [26 июн 2020, 21:00] Скачать торрент Магнет ссылка
Скачать торрент
[ Размер 12.39 КБ / Просмотров 3 ]

Статус
Проверен 
 
Размер  550.14 МБ
Приватный: Нет (DHT включён)
.torrent скачан  0
 


     Отправить личное сообщение
   
Страница 1 из 1
Показать сообщения за:  Поле сортировки  
Начать новую тему Ответить на тему


Сейчас этот форум просматривают: нет зарегистрированных пользователей и гости: 0


Вы не можете начинать темы
Вы не можете отвечать на сообщения
Вы не можете редактировать свои сообщения
Вы не можете удалять свои сообщения
Вы не можете добавлять вложения

Перейти:  
cron