Начать новую тему Ответить на тему
Статистика раздачи
Размер: 326.94 МБ | Добавлен: 26 июн 2020, 16:52 | Скачали: 0
Сидеров: 0  [0 байт/сек]    Личеров: 0  [0 байт/сек]
Пред. тема | След. тема 

Автор
Сообщение

СообщениеДобавлено: 26 июн 2020, 16:52 

Ответить с цитатой 

Reizstrom / Interferenz
Жанр: Electronic / EBM, Industrial, Synthpop
Страна-производитель диска: Germany
Год издания: 2012
Издатель (лейбл): Ionium Records
Номер по каталогу: Ion052
Формат: CDr, Album, Digipak
Аудиокодек: FLAC (*.flac)
Тип рипа: image+.cue
Битрейт аудио: lossless
Продолжительность: 0:43:12.05
Источник (релизер): Физический носитель (Собственный рип с оригинала).
Наличие сканов в содержимом раздачи: да
Треклист:
01. I Will Believe [4:24]
02. Its Your Turn [3:56]
03. Fernlicht [3:48]
04. Invisible Force [4:18]
05. Compromise [4:37]
06. Winners & Losers [5:18]
07. Tausend Augen [3:37]
08. Waking Up Normal [4:05]
09. Despot [3:49]
10. Narcotic [5:20]
Код:
Exact Audio Copy V1.0 beta 3 from 29. August 2011
EAC extraction logfile from 3. July 2012, 15:20
Reizstrom / Interferenz
Used drive  : PLEXTOR BDDVDR PX-B320SA   Adapter: 6  ID: 1
Read mode               : Secure
Utilize accurate stream : Yes
Defeat audio cache      : Yes
Make use of C2 pointers : No
Read offset correction                      : 6
Overread into Lead-In and Lead-Out          : No
Fill up missing offset samples with silence : Yes
Delete leading and trailing silent blocks   : No
Null samples used in CRC calculations       : Yes
Used interface                              : Installed external ASPI interface
Used output format              : User Defined Encoder
Selected bitrate                : 128 kBit/s
Quality                         : High
Add ID3 tag                     : No
Command line compressor         : C:\Program Files (x86)\FLAC\flac.exe
Additional command line options : -V -8 -T "Date=%year%" -T "Genre=%genre%" %source%
TOC of the extracted CD
     Track |   Start  |  Length  | Start sector | End sector
    ---------------------------------------------------------
        1  |  0:00.00 |  4:24.01 |         0    |    19800
        2  |  4:24.01 |  3:56.01 |     19801    |    37501
        3  |  8:20.02 |  3:48.00 |     37502    |    54601
        4  | 12:08.02 |  4:17.46 |     54602    |    73922
        5  | 16:25.48 |  4:37.23 |     73923    |    94720
        6  | 21:02.71 |  5:17.42 |     94721    |   118537
        7  | 26:20.38 |  3:36.61 |    118538    |   134798
        8  | 29:57.24 |  4:05.29 |    134799    |   153202
        9  | 34:02.53 |  3:49.26 |    153203    |   170403
       10  | 37:52.04 |  5:20.01 |    170404    |   194404
Range status and errors
Selected range
     Filename D:\Reizstrom - Interferenz (2012)\Reizstrom - Interferenz.wav
     Peak level 100.0 %
     Extraction speed 7.4 X
     Range quality 100.0 %
     Test CRC 78FD87C4
     Copy CRC 78FD87C4
     Copy OK
No errors occurred
AccurateRip summary
Track  1  not present in database
Track  2  not present in database
Track  3  not present in database
Track  4  not present in database
Track  5  not present in database
Track  6  not present in database
Track  7  not present in database
Track  8  not present in database
Track  9  not present in database
Track 10  not present in database
None of the tracks are present in the AccurateRip database
End of status report
==== Log checksum 9C726186007B53250AEE6FE6429B33556A4190303C98BE267959C01D786A31E8 ====
Приятного прослушивания !
Раздача осуществляется исключительно в ознакомительных целях!
Всем, кому понравилось творчество Reizstrom, советую приобрести диски легально (хотя бы те, которые ещё возможно купить), и тем самым поддержать эту замечательную группу !
Handing out is carried out only to get acquainted!
Everyone who likes to art Reizstrom, I advise to buy a legally CDs (at least those who might buy), and thus support the artist!
Правила, инструкции, FAQ!!!
Торрент  Добавлен [26 июн 2020, 16:52] Скачать торрент Магнет ссылка
Скачать торрент
[ Размер 13.61 КБ / Просмотров 5 ]

Статус
Проверен 
 
Размер  326.94 МБ
Приватный: Нет (DHT включён)
.torrent скачан  0
 


     Отправить личное сообщение
   
Страница 1 из 1
Показать сообщения за:  Поле сортировки  
Начать новую тему Ответить на тему


Сейчас этот форум просматривают: нет зарегистрированных пользователей и гости: 0


Вы не можете начинать темы
Вы не можете отвечать на сообщения
Вы не можете редактировать свои сообщения
Вы не можете удалять свои сообщения
Вы не можете добавлять вложения

Перейти:  
cron