Начать новую тему Ответить на тему
Статистика раздачи
Размер: 593.6 МБ | Добавлен: 26 июн 2020, 16:52 | Скачали: 0
Сидеров: 0  [0 байт/сек]    Личеров: 0  [0 байт/сек]
Пред. тема | След. тема 

Автор
Сообщение

СообщениеДобавлено: 26 июн 2020, 16:52 

Ответить с цитатой 

Reizstrom / Dwarfs Like Giants
Жанр: Electronic / EBM, Industrial, Synthpop
Страна-производитель диска: Germany
Год издания диска: 2010
Издатель (лейбл): Not On Label
Номер по каталогу: none
Формат: CDr, Album, Limited Edition (Digipak edition limited to 100 copies).
Страна: Germany
Аудиокодек: FLAC (*.flac)
Тип рипа: image+.cue
Битрейт аудио: lossless
Продолжительность: 1:17:35.42
Источник (релизер): Физический носитель (Собственный рип с оригинала).
Наличие сканов в содержимом раздачи: да
Треклист:
01. Simple Addition [3:54]
02. Paralyzed [4:20]
03. Killed In Action [4:25]
04. Rotten Time [5:06]
05. Pathetic [3:55]
06. Tackle [5:20]
07. The Hurting Light [4:08]
08. The Plague [4:11]
09. Caution, Breakable [5:32]
10. Ugly City [4:30]
11. Mensch Gegen Mensch [3:38]
12. Glorious Days [5:15]
13. Fools Are Blind [4:35]
14. The Hurting Light (NTRSN Remix) [4:47]
15. The Hurting Light (Defence Mechanism Remix) [4:39]
16. Paralyzed (Titans Remix) [4:46]
17. Tackle (LPF12 Remix) [4:34]
Код:
Exact Audio Copy V1.0 beta 3 from 29. August 2011
EAC extraction logfile from 28. January 2012, 16:21
Reizstrom / Dwarfs Like Giants
Used drive  : PLEXTOR BDDVDR PX-B320SA   Adapter: 0  ID: 2
Read mode               : Secure
Utilize accurate stream : Yes
Defeat audio cache      : Yes
Make use of C2 pointers : No
Read offset correction                      : 6
Overread into Lead-In and Lead-Out          : No
Fill up missing offset samples with silence : Yes
Delete leading and trailing silent blocks   : No
Null samples used in CRC calculations       : Yes
Used interface                              : Native Win32 interface for Win NT & 2000
Used output format              : User Defined Encoder
Selected bitrate                : 128 kBit/s
Quality                         : High
Add ID3 tag                     : No
Command line compressor         : C:\Program Files (x86)\FLAC\flac.exe
Additional command line options : -V -8 -T "Date=%year%" -T "Genre=%genre%" %source%
TOC of the extracted CD
     Track |   Start  |  Length  | Start sector | End sector
    ---------------------------------------------------------
        1  |  0:00.00 |  3:53.74 |         0    |    17548
        2  |  3:53.74 |  4:19.59 |     17549    |    37032
        3  |  8:13.58 |  4:24.39 |     37033    |    56871
        4  | 12:38.22 |  5:06.31 |     56872    |    79852
        5  | 17:44.53 |  3:54.65 |     79853    |    97467
        6  | 21:39.43 |  5:20.10 |     97468    |   121477
        7  | 26:59.53 |  4:08.01 |    121478    |   140078
        8  | 31:07.54 |  4:11.20 |    140079    |   158923
        9  | 35:18.74 |  5:32.03 |    158924    |   183826
       10  | 40:51.02 |  4:30.01 |    183827    |   204077
       11  | 45:21.03 |  3:38.00 |    204078    |   220427
       12  | 48:59.03 |  5:15.00 |    220428    |   244052
       13  | 54:14.03 |  4:35.02 |    244053    |   264679
       14  | 58:49.05 |  4:46.74 |    264680    |   286203
       15  | 63:36.04 |  4:38.69 |    286204    |   307122
       16  | 68:14.73 |  4:46.34 |    307123    |   328606
       17  | 73:01.32 |  4:34.00 |    328607    |   349156
Range status and errors
Selected range
     Filename D:\Reizstrom - Dwarfs Like Giants (2010)\Reizstrom - Dwarfs Like Giants.wav
     Peak level 100.0 %
     Extraction speed 8.6 X
     Range quality 100.0 %
     Test CRC 892778C0
     Copy CRC 892778C0
     Copy OK
No errors occurred
AccurateRip summary
Track  1  accurately ripped (confidence 1)  [2BCE8777]  (AR v1)
Track  2  accurately ripped (confidence 1)  [C3EF8162]  (AR v1)
Track  3  accurately ripped (confidence 1)  [F265D77F]  (AR v1)
Track  4  accurately ripped (confidence 1)  [80970C14]  (AR v1)
Track  5  accurately ripped (confidence 1)  [81AADD6D]  (AR v1)
Track  6  accurately ripped (confidence 1)  [031808F2]  (AR v1)
Track  7  accurately ripped (confidence 1)  [A8D1BC2B]  (AR v1)
Track  8  accurately ripped (confidence 1)  [757A3891]  (AR v1)
Track  9  accurately ripped (confidence 1)  [93FE2525]  (AR v1)
Track 10  accurately ripped (confidence 1)  [E5C12744]  (AR v1)
Track 11  accurately ripped (confidence 1)  [81A75B81]  (AR v1)
Track 12  accurately ripped (confidence 1)  [EF7F8545]  (AR v1)
Track 13  accurately ripped (confidence 1)  [8DB066C2]  (AR v1)
Track 14  accurately ripped (confidence 1)  [8CF6DFC2]  (AR v1)
Track 15  accurately ripped (confidence 1)  [C08846B8]  (AR v1)
Track 16  accurately ripped (confidence 1)  [02B88764]  (AR v1)
Track 17  accurately ripped (confidence 1)  [BEC34CDE]  (AR v1)
All tracks accurately ripped
End of status report
==== Log checksum 3C1BEF8AE848CFCFA1293984496934EE9E681BF5B1192C99F458BCD25579D348 ====
Приятного прослушивания !
Раздача осуществляется исключительно в ознакомительных целях!
Всем, кому понравилось творчество Reizstrom, советую приобрести диски легально (хотя бы те, которые ещё возможно купить), и тем самым поддержать эту замечательную группу !
Handing out is carried out only to get acquainted!
Everyone who likes to art Reizstrom, I advise to buy a legally CDs (at least those who might buy), and thus support the artist!
Правила, инструкции, FAQ!!!
Торрент  Добавлен [26 июн 2020, 16:52] Скачать торрент Магнет ссылка
Скачать торрент
[ Размер 12.53 КБ / Просмотров 5 ]

Статус
Проверен 
 
Размер  593.6 МБ
Приватный: Нет (DHT включён)
.torrent скачан  0
 


     Отправить личное сообщение
   
Страница 1 из 1
Показать сообщения за:  Поле сортировки  
Начать новую тему Ответить на тему


Сейчас этот форум просматривают: нет зарегистрированных пользователей и гости: 0


Вы не можете начинать темы
Вы не можете отвечать на сообщения
Вы не можете редактировать свои сообщения
Вы не можете удалять свои сообщения
Вы не можете добавлять вложения

Перейти:  
cron