Начать новую тему Ответить на тему
Статистика раздачи
Размер: 216.91 МБ | Добавлен: 26 июн 2020, 19:50 | Скачали: 0
Сидеров: 1  [0 байт/сек]    Личеров: 0  [0 байт/сек]
Пред. тема | След. тема 

Автор
Сообщение

СообщениеДобавлено: 26 июн 2020, 19:50 

Ответить с цитатой 

Lights of Euphoria - True Life
Жанр: EBM, Industrial, Synthpop
Носитель: CD
Страна-производитель диска: Germany
Год издания: 2003
Издатель (лейбл): Accession Records
Номер по каталогу: EFA 23458-2
Страна: Germany
Аудиокодек: FLAC (*.flac)
Тип рипа: image+.cue
Битрейт аудио: lossless
Продолжительность: 00:30:57
Источник (релизер): Rekhyt
Наличие сканов в содержимом раздачи: нет
Треклист:
1. True Life (4:00)
2. True Life (VNV Nation Remix) (6:56)
3. True Life (Assemblage 23 Remix) (5:10)
4. Fly To Target (4:33)
5. True Life (God Module Remix) (5:25)
6. True Life (DavaNtage Remix) (4:50)
Код:
Exact Audio Copy V1.0 beta 3 from 29. August 2011
EAC extraction logfile from 15. August 2012, 15:20
Lights of Euphoria / True Life
Used drive  : ATAPI   iHAS424   B   Adapter: 3  ID: 0
Read mode               : Secure
Utilize accurate stream : Yes
Defeat audio cache      : Yes
Make use of C2 pointers : No
Read offset correction                      : 6
Overread into Lead-In and Lead-Out          : No
Fill up missing offset samples with silence : Yes
Delete leading and trailing silent blocks   : No
Null samples used in CRC calculations       : Yes
Used interface                              : Native Win32 interface for Win NT & 2000
Used output format              : User Defined Encoder
Selected bitrate                : 1024 kBit/s
Quality                         : High
Add ID3 tag                     : No
Command line compressor         : C:\Program Files (x86)\Exact Audio Copy\FLAC\FLAC.EXE
Additional command line options : -V -8 -T "Date=%year%" -T "Genre=%genre%" %source%
TOC of the extracted CD
     Track |   Start  |  Length  | Start sector | End sector
    ---------------------------------------------------------
        1  |  0:00.00 |  4:00.44 |         0    |    18043
        2  |  4:00.44 |  6:56.67 |     18044    |    49310
        3  | 10:57.36 |  5:10.68 |     49311    |    72628
        4  | 16:08.29 |  4:33.39 |     72629    |    93142
        5  | 20:41.68 |  5:25.40 |     93143    |   117557
        6  | 26:07.33 |  4:50.09 |    117558    |   139316
Range status and errors
Selected range
     Filename E:\Downloads\Lights of Euphoria\Lights of Euphoria - True Life\Lights of Euphoria - True Life.wav
     Peak level 99.2 %
     Extraction speed 7.0 X
     Range quality 99.9 %
     Test CRC D0C12415
     Copy CRC D0C12415
     Copy OK
No errors occurred
AccurateRip summary
Track  1  accurately ripped (confidence 2)  [F2CD5487]  (AR v1)
Track  2  accurately ripped (confidence 2)  [3D8447CD]  (AR v1)
Track  3  accurately ripped (confidence 2)  [0C506ED4]  (AR v1)
Track  4  accurately ripped (confidence 2)  [00CBC7B2]  (AR v1)
Track  5  accurately ripped (confidence 2)  [676F7A91]  (AR v1)
Track  6  not present in database
 5 track(s) accurately ripped
 1 track(s) not present in the AccurateRip database
Some tracks could not be verified as accurate
End of status report
==== Log checksum 13DA52F0ABC7CB5141A3DEB7527C50DBEFCDF9B559515AAC6C417D5086755F19 ====
Код:
REM DATE 2003
REM DISCID 4D074106
REM COMMENT "ExactAudioCopy v1.0b3"
PERFORMER "Lights of Euphoria"
TITLE "True Life"
FILE "Lights of Euphoria - True Life.flac" WAVE
  TRACK 01 AUDIO
    TITLE "True Life"
    PERFORMER "Lights of Euphoria"
    INDEX 01 00:00:00
  TRACK 02 AUDIO
    TITLE "True Life (VNV Nation Remix)"
    PERFORMER "Lights of Euphoria"
    INDEX 00 03:59:01
    INDEX 01 04:00:44
  TRACK 03 AUDIO
    TITLE "True Life (Assemblage 23 Remix)"
    PERFORMER "Lights of Euphoria"
    INDEX 00 10:55:35
    INDEX 01 10:57:36
  TRACK 04 AUDIO
    TITLE "Fly To Target"
    PERFORMER "Lights of Euphoria"
    INDEX 00 16:06:27
    INDEX 01 16:08:29
  TRACK 05 AUDIO
    TITLE "True Life (God Module Remix)"
    PERFORMER "Lights of Euphoria"
    INDEX 00 20:39:73
    INDEX 01 20:41:68
  TRACK 06 AUDIO
    TITLE "True Life (DavaNtage Remix)"
    PERFORMER "Lights of Euphoria"
    INDEX 00 26:05:25
    INDEX 01 26:07:33
Код:
AUDIOCHECKER v2.0 beta (build 457) - by Dester - opdester@freemail.hu
~~~~~~~~~~~~~~~~~~~~~~~~~~~~~~~~~~
-=== DO NOT EDIT THIS FILE! ===-
Path: ...\Lights of Euphoria - True Life
1 -=- Lights of Euphoria - True Life.flac -=- CDDA (100%)
148632388



http://www.lightsofeuphoria.dk/
http://www.discogs.com/artist/Lights+Of+Euphoria (manually put in URL / вручную положить в URL)
http://www.discogs.com/Lights-Of-Euphoria-True-Life/release/3387023 (manually put in URL / вручную положить в URL)
Правила, инструкции, FAQ!!!
Торрент  Добавлен [26 июн 2020, 19:50] Скачать торрент Магнет ссылка
Скачать торрент
[ Размер 17.62 КБ / Просмотров 23 ]

Статус
Проверен 
 
Размер  216.91 МБ
Приватный: Нет (DHT включён)
.torrent скачан  0
 


     Отправить личное сообщение
   
Страница 1 из 1
Показать сообщения за:  Поле сортировки  
Начать новую тему Ответить на тему


Сейчас этот форум просматривают: нет зарегистрированных пользователей и гости: 0


Вы не можете начинать темы
Вы не можете отвечать на сообщения
Вы не можете редактировать свои сообщения
Вы не можете удалять свои сообщения
Вы не можете добавлять вложения

Перейти:  
cron