Начать новую тему Ответить на тему
Статистика раздачи
Размер: 550.67 МБ | Добавлен: 26 июн 2020, 19:50 | Скачали: 0
Сидеров: 0  [0 байт/сек]    Личеров: 0  [0 байт/сек]
Пред. тема | След. тема 

Автор
Сообщение

СообщениеДобавлено: 26 июн 2020, 19:50 

Ответить с цитатой 

Lights of Euphoria - Querschnitt
Жанр: EBM, Industrial, Synthpop
Носитель: CD
Страна-производитель диска: U.S.
Год издания: 2004
Издатель (лейбл): Metropolis
Номер по каталогу: MET 322
Страна: U.S.
Аудиокодек: FLAC (*.flac)
Тип рипа: image+.cue
Битрейт аудио: lossless
Продолжительность: 01:17:42
Источник (релизер): Rekhyt
Наличие сканов в содержимом раздачи: да
Треклист:
1. In Love With the Night (4:26)
2. Face of A God (4:42)
3. Give Me You (4:32)
4. Deal In Sex (4:04)
5. Monument of Destruction (4:28)
6. Reaching Out (3:25)
7. Serenade (Splitter) (2:21)
8. Vision (3:10)
9. Sleepwalking (4:41)
10. Subjection (Original Mix) (5:00)
11. In Love With the Night (Pearls of Dew Remix) (3:55)
12. Injustice (Leæther Strip Remix) (4:53)
13. In Love With the Night (Vox Celesta Remix) (3:55)
14. Lock Me Up (In Strict Confidence Dub Remix) (5:43)
15. Broken Wings (Arabian Mix) (3:50)
16. Monument of Destruction (Zelle 40 Remix) (3:59)
17. A Thousand Nights (3:57)
18. Druganthem (Exogene Neurosis) (6:43)
Код:
Exact Audio Copy V1.0 beta 3 from 29. August 2011
EAC extraction logfile from 21. August 2012, 11:11
Lights of Euphoria / Querschnitt
Used drive  : ATAPI   iHAS424   B   Adapter: 3  ID: 0
Read mode               : Secure
Utilize accurate stream : Yes
Defeat audio cache      : Yes
Make use of C2 pointers : No
Read offset correction                      : 6
Overread into Lead-In and Lead-Out          : No
Fill up missing offset samples with silence : Yes
Delete leading and trailing silent blocks   : No
Null samples used in CRC calculations       : Yes
Used interface                              : Native Win32 interface for Win NT & 2000
Used output format              : User Defined Encoder
Selected bitrate                : 1024 kBit/s
Quality                         : High
Add ID3 tag                     : No
Command line compressor         : C:\Program Files (x86)\Exact Audio Copy\FLAC\FLAC.EXE
Additional command line options : -V -8 -T "Date=%year%" -T "Genre=%genre%" %source%
TOC of the extracted CD
     Track |   Start  |  Length  | Start sector | End sector
    ---------------------------------------------------------
        1  |  0:00.00 |  4:25.38 |         0    |    19912
        2  |  4:25.38 |  4:41.50 |     19913    |    41037
        3  |  9:07.13 |  4:31.70 |     41038    |    61432
        4  | 13:39.08 |  4:04.18 |     61433    |    79750
        5  | 17:43.26 |  4:27.39 |     79751    |    99814
        6  | 22:10.65 |  3:24.58 |     99815    |   115172
        7  | 25:35.48 |  2:21.06 |    115173    |   125753
        8  | 27:56.54 |  3:09.48 |    125754    |   139976
        9  | 31:06.27 |  4:41.04 |    139977    |   161055
       10  | 35:47.31 |  4:59.73 |    161056    |   183553
       11  | 40:47.29 |  3:55.18 |    183554    |   201196
       12  | 44:42.47 |  4:53.24 |    201197    |   223195
       13  | 49:35.71 |  3:55.28 |    223196    |   240848
       14  | 53:31.24 |  5:42.45 |    240849    |   266543
       15  | 59:13.69 |  3:50.35 |    266544    |   283828
       16  | 63:04.29 |  3:58.38 |    283829    |   301716
       17  | 67:02.67 |  3:56.63 |    301717    |   319479
       18  | 70:59.55 |  6:42.40 |    319480    |   349669
Range status and errors
Selected range
     Filename E:\Downloads\Lights of Euphoria\Lights of Euphoria - Querschnitt\Lights of Euphoria - Querschnitt.wav
     Peak level 99.9 %
     Extraction speed 2.0 X
     Range quality 99.9 %
     Test CRC 5FE50ADD
     Copy CRC 5FE50ADD
     Copy OK
No errors occurred
AccurateRip summary
Track  1  cannot be verified as accurate (confidence 2)  [5221337C], AccurateRip returned [BF97CBE1]  (AR v2)
Track  2  cannot be verified as accurate (confidence 2)  [16AD3C6F], AccurateRip returned [3A9837CA]  (AR v2)
Track  3  cannot be verified as accurate (confidence 2)  [0D330F40], AccurateRip returned [0773A9F6]  (AR v2)
Track  4  cannot be verified as accurate (confidence 2)  [50AF84C5], AccurateRip returned [D75779FB]  (AR v2)
Track  5  cannot be verified as accurate (confidence 2)  [DB7E4B5B], AccurateRip returned [B2C9CA9A]  (AR v2)
Track  6  cannot be verified as accurate (confidence 2)  [BADF96A9], AccurateRip returned [AFEEDAF6]  (AR v2)
Track  7  cannot be verified as accurate (confidence 2)  [9CBCCA23], AccurateRip returned [5A7A7F8B]  (AR v2)
Track  8  cannot be verified as accurate (confidence 2)  [8EDCD2C3], AccurateRip returned [9F5306F8]  (AR v2)
Track  9  cannot be verified as accurate (confidence 2)  [23C73170], AccurateRip returned [0FD44ABE]  (AR v2)
Track 10  cannot be verified as accurate (confidence 2)  [E783C97C], AccurateRip returned [CF826CDC]  (AR v2)
Track 11  cannot be verified as accurate (confidence 2)  [A096628E], AccurateRip returned [8C821054]  (AR v2)
Track 12  cannot be verified as accurate (confidence 2)  [83B3AD2D], AccurateRip returned [1B7AADB2]  (AR v2)
Track 13  cannot be verified as accurate (confidence 2)  [C14CFCBF], AccurateRip returned [217DA397]  (AR v2)
Track 14  cannot be verified as accurate (confidence 2)  [98A38FBB], AccurateRip returned [26E66373]  (AR v2)
Track 15  cannot be verified as accurate (confidence 2)  [59EC13F6], AccurateRip returned [DAA8D7BC]  (AR v2)
Track 16  cannot be verified as accurate (confidence 2)  [95DFE85C], AccurateRip returned [4A33AA90]  (AR v2)
Track 17  cannot be verified as accurate (confidence 2)  [C12EDE02], AccurateRip returned [B898310D]  (AR v2)
Track 18  cannot be verified as accurate (confidence 2)  [BE662965], AccurateRip returned [226090C4]  (AR v2)
No tracks could be verified as accurate
You may have a different pressing from the one(s) in the database
End of status report
==== Log checksum 33E14D11D9F112FDEAF7AE1259602C3A89220F9ADBF080241F43B6075FB9A6F5 ====
Код:
REM DATE 2004
REM DISCID 1B123612
REM COMMENT "ExactAudioCopy v1.0b3"
PERFORMER "Lights of Euphoria"
TITLE "Querschnitt"
FILE "Lights of Euphoria - Querschnitt.flac" WAVE
  TRACK 01 AUDIO
    TITLE "In Love With the Night"
    PERFORMER "Lights of Euphoria"
    INDEX 01 00:00:00
  TRACK 02 AUDIO
    TITLE "Face of A God"
    PERFORMER "Lights of Euphoria"
    INDEX 00 04:23:39
    INDEX 01 04:25:38
  TRACK 03 AUDIO
    TITLE "Give Me You"
    PERFORMER "Lights of Euphoria"
    INDEX 00 09:05:14
    INDEX 01 09:07:13
  TRACK 04 AUDIO
    TITLE "Deal In Sex"
    PERFORMER "Lights of Euphoria"
    INDEX 00 13:37:09
    INDEX 01 13:39:08
  TRACK 05 AUDIO
    TITLE "Monument of Destruction"
    PERFORMER "Lights of Euphoria"
    INDEX 00 17:41:27
    INDEX 01 17:43:26
  TRACK 06 AUDIO
    TITLE "Reaching Out"
    PERFORMER "Lights of Euphoria"
    INDEX 00 22:08:66
    INDEX 01 22:10:65
  TRACK 07 AUDIO
    TITLE "Serenade (Splitter)"
    PERFORMER "Lights of Euphoria"
    INDEX 00 25:33:49
    INDEX 01 25:35:48
  TRACK 08 AUDIO
    TITLE "Vision"
    PERFORMER "Lights of Euphoria"
    INDEX 00 27:54:55
    INDEX 01 27:56:54
  TRACK 09 AUDIO
    TITLE "Sleepwalking"
    PERFORMER "Lights of Euphoria"
    INDEX 00 31:04:28
    INDEX 01 31:06:27
  TRACK 10 AUDIO
    TITLE "Subjection (Original Mix)"
    PERFORMER "Lights of Euphoria"
    INDEX 00 35:45:32
    INDEX 01 35:47:31
  TRACK 11 AUDIO
    TITLE "In Love With the Night (Pearls of Dew Remix)"
    PERFORMER "Lights of Euphoria"
    INDEX 00 40:45:30
    INDEX 01 40:47:29
  TRACK 12 AUDIO
    TITLE "Injustice (Leæther Strip Remix)"
    PERFORMER "Lights of Euphoria"
    INDEX 00 44:40:48
    INDEX 01 44:42:47
  TRACK 13 AUDIO
    TITLE "In Love With the Night (Vox Celesta Remix)"
    PERFORMER "Lights of Euphoria"
    INDEX 00 49:33:72
    INDEX 01 49:35:71
  TRACK 14 AUDIO
    TITLE "Lock Me Up (In Strict Confidence Dub Remix)"
    PERFORMER "Lights of Euphoria"
    INDEX 00 53:29:25
    INDEX 01 53:31:24
  TRACK 15 AUDIO
    TITLE "Broken Wings (Arabian Mix)"
    PERFORMER "Lights of Euphoria"
    INDEX 00 59:11:70
    INDEX 01 59:13:69
  TRACK 16 AUDIO
    TITLE "Monument of Destruction (Zelle 40 Mix)"
    PERFORMER "Lights of Euphoria"
    INDEX 00 63:02:30
    INDEX 01 63:04:29
  TRACK 17 AUDIO
    TITLE "A Thousand Nights"
    PERFORMER "Lights of Euphoria"
    INDEX 00 67:00:68
    INDEX 01 67:02:67
  TRACK 18 AUDIO
    TITLE "Druganthem (Exogene Neurosis)"
    PERFORMER "Lights of Euphoria"
    INDEX 00 70:57:56
    INDEX 01 70:59:55
Код:
AUDIOCHECKER v2.0 beta (build 457) - by Dester - opdester@freemail.hu
~~~~~~~~~~~~~~~~~~~~~~~~~~~~~~~~~~
-=== DO NOT EDIT THIS FILE! ===-
Path: ...\Lights of Euphoria - Querschnitt
1 -=- Lights of Euphoria - Querschnitt.flac -=- CDDA (100%)
259991252
http://www.lightsofeuphoria.dk/
http://www.discogs.com/artist/Lights+Of+Euphoria (manually put in URL / вручную положить в URL)
http://www.discogs.com/Lights-Of-Euphoria-Querschnitt/release/436916 (manually put in URL / вручную положить в URL)
Правила, инструкции, FAQ!!!
Торрент  Добавлен [26 июн 2020, 19:50] Скачать торрент Магнет ссылка
Скачать торрент
[ Размер 11.96 КБ / Просмотров 12 ]

Статус
Проверен 
 
Размер  550.67 МБ
Приватный: Нет (DHT включён)
.torrent скачан  0
 


     Отправить личное сообщение
   
Страница 1 из 1
Показать сообщения за:  Поле сортировки  
Начать новую тему Ответить на тему


Сейчас этот форум просматривают: нет зарегистрированных пользователей и гости: 0


Вы не можете начинать темы
Вы не можете отвечать на сообщения
Вы не можете редактировать свои сообщения
Вы не можете удалять свои сообщения
Вы не можете добавлять вложения

Перейти:  
cron