Начать новую тему Ответить на тему
Статистика раздачи
Размер: 203.12 МБ | Добавлен: 26 июн 2020, 19:50 | Скачали: 0
Сидеров: 0  [0 байт/сек]    Личеров: 0  [0 байт/сек]
Пред. тема | След. тема 

Автор
Сообщение

СообщениеДобавлено: 26 июн 2020, 19:50 

Ответить с цитатой 

Lights of Euphoria - Fortuneteller
Жанр: EBM, Industrial, Synthpop
Носитель: CD
Страна-производитель диска: Germany
Год издания: 2001
Издатель (лейбл): Bloodline
Номер по каталогу: Line CD 023
Страна: Europe
Аудиокодек: FLAC (*.flac)
Тип рипа: image+.cue
Битрейт аудио: lossless
Продолжительность: 00:29:32
Источник (релизер): Rekhyt
Наличие сканов в содержимом раздачи: нет
Треклист:
1. Fortuneteller (3:43)
2. Fortuneteller (Re/Worked) (6:20)
3. Fortuneteller (Voice Remix) (5:30)
4. Inquisition (3:31)
5. Fortuneteller (Project X Remix) (4:48)
6. Fortuneteller (Aghast View Remix) (5:41)
Код:
Exact Audio Copy V1.0 beta 3 from 29. August 2011
EAC extraction logfile from 15. August 2012, 14:57
Lights of Euphoria / Fortuneteller
Used drive  : ATAPI   iHAS424   B   Adapter: 3  ID: 0
Read mode               : Secure
Utilize accurate stream : Yes
Defeat audio cache      : Yes
Make use of C2 pointers : No
Read offset correction                      : 6
Overread into Lead-In and Lead-Out          : No
Fill up missing offset samples with silence : Yes
Delete leading and trailing silent blocks   : No
Null samples used in CRC calculations       : Yes
Used interface                              : Native Win32 interface for Win NT & 2000
Used output format              : User Defined Encoder
Selected bitrate                : 1024 kBit/s
Quality                         : High
Add ID3 tag                     : No
Command line compressor         : C:\Program Files (x86)\Exact Audio Copy\FLAC\FLAC.EXE
Additional command line options : -V -8 -T "Date=%year%" -T "Genre=%genre%" %source%
TOC of the extracted CD
     Track |   Start  |  Length  | Start sector | End sector
    ---------------------------------------------------------
        1  |  0:00.00 |  3:42.51 |         0    |    16700
        2  |  3:42.51 |  6:20.14 |     16701    |    45214
        3  | 10:02.65 |  5:30.00 |     45215    |    69964
        4  | 15:32.65 |  3:31.02 |     69965    |    85791
        5  | 19:03.67 |  4:48.11 |     85792    |   107402
        6  | 23:52.03 |  5:40.38 |    107403    |   132940
Range status and errors
Selected range
     Filename E:\Downloads\Lights of Euphoria\Lights of Euphoria - Fortuneteller\Lights of Euphoria - Fortuneteller.wav
     Peak level 98.8 %
     Extraction speed 6.9 X
     Range quality 99.9 %
     Test CRC 78F06294
     Copy CRC 78F06294
     Copy OK
No errors occurred
AccurateRip summary
Track  1  not present in database
Track  2  not present in database
Track  3  not present in database
Track  4  not present in database
Track  5  not present in database
Track  6  not present in database
None of the tracks are present in the AccurateRip database
End of status report
==== Log checksum 941C93967CDF4B9091B3B6F1683F9446AD991A6EB6E0F3E0D616DE89F41C750A ====
Код:
REM DATE 2001
REM DISCID 3B06EC06
REM COMMENT "ExactAudioCopy v1.0b3"
PERFORMER "Lights of Euphoria"
TITLE "Fortuneteller"
FILE "Lights of Euphoria - Fortuneteller.flac" WAVE
  TRACK 01 AUDIO
    TITLE "Fortuneteller"
    PERFORMER "Lights of Euphoria"
    ISRC DEQ620002301
    INDEX 01 00:00:00
  TRACK 02 AUDIO
    TITLE "Fortuneteller (Re/Worked)"
    PERFORMER "Lights of Euphoria"
    ISRC DEQ620002302
    INDEX 00 03:40:51
    INDEX 01 03:42:51
  TRACK 03 AUDIO
    TITLE "Fortuneteller (Voice Remix)"
    PERFORMER "Lights of Euphoria"
    ISRC DEQ620002303
    INDEX 00 10:00:65
    INDEX 01 10:02:65
  TRACK 04 AUDIO
    TITLE "Inquisition"
    PERFORMER "Lights of Euphoria"
    ISRC DEQ620002304
    INDEX 00 15:30:65
    INDEX 01 15:32:65
  TRACK 05 AUDIO
    TITLE "Fortuneteller (Project X Remix)"
    PERFORMER "Lights of Euphoria"
    ISRC DEQ620002305
    INDEX 01 19:03:67
  TRACK 06 AUDIO
    TITLE "Fortuneteller (Aghast View Remix)"
    PERFORMER "Lights of Euphoria"
    ISRC DEQ620002306
    INDEX 00 23:50:03
    INDEX 01 23:52:03
Код:
AUDIOCHECKER v2.0 beta (build 457) - by Dester - opdester@freemail.hu
~~~~~~~~~~~~~~~~~~~~~~~~~~~~~~~~~~
-=== DO NOT EDIT THIS FILE! ===-
Path: ...\Lights of Euphoria - Fortuneteller
1 -=- Lights of Euphoria - Fortuneteller.flac -=- CDDA (100%)
195179892


http://www.lightsofeuphoria.dk/
http://www.discogs.com/artist/Lights+Of+Euphoria (manually put in URL / вручную положить в URL)
http://www.discogs.com/Lights-Of-Euphoria-Fortuneteller/release/102533 (manually put in URL / вручную положить в URL)
Правила, инструкции, FAQ!!!
Торрент  Добавлен [26 июн 2020, 19:50] Скачать торрент Магнет ссылка
Скачать торрент
[ Размер 16.57 КБ / Просмотров 9 ]

Статус
Проверен 
 
Размер  203.12 МБ
Приватный: Нет (DHT включён)
.torrent скачан  0
 


     Отправить личное сообщение
   
Страница 1 из 1
Показать сообщения за:  Поле сортировки  
Начать новую тему Ответить на тему


Сейчас этот форум просматривают: нет зарегистрированных пользователей и гости: 0


Вы не можете начинать темы
Вы не можете отвечать на сообщения
Вы не можете редактировать свои сообщения
Вы не можете удалять свои сообщения
Вы не можете добавлять вложения

Перейти:  
cron