Начать новую тему Ответить на тему
Статистика раздачи
Размер: 545.41 МБ | Добавлен: 26 июн 2020, 17:53 | Скачали: 0
Сидеров: 0  [0 байт/сек]    Личеров: 0  [0 байт/сек]
Пред. тема | След. тема 

Автор
Сообщение

СообщениеДобавлено: 26 июн 2020, 17:53 

Ответить с цитатой 

Various - We Came to Dance Vol.VIII.1996
Жанр: EBM, Industrial, Synth-pop
Носитель: CD
Страна-производитель диска (релиза): Germany
Год издания: 1996
Издатель (лейбл): Sub Terranean
Номер по каталогу: SPV 085-38632
Страна исполнителя (группы): Germany
Аудиокодек: FLAC (*.flac)
Тип рипа: image+.cue
Продолжительность: 1:11:55
Источник: собственный рип
Наличие сканов в содержимом раздачи: да
Треклист:
1 . Apoptygma Berzerk - Non-Stop Violence 5:46
2 . Delay - Soul Cremation 4:48
3 . Frontline Assembly - Barcode (Edit 3.0) 4:38
4 . Ichor - Another Day 5:02
5 . Silke Bischoff - Under Your Skin 6:06
6 . Leæther Strip - We Deserve It All 4:37
7 . Girls Under Glass - Colour Of Truth 5:13
8 . Rammstein - Du Riechst So Gut 4:49
9 . Die Krupps - Metalmorphosis 4:37
10 . Klute - Hey! Fuck Da World 2:16
11 . Covenant - Figurehead 4:45
12 . Sleeping Dogs Wake - Toys For Alice 6:42
13 . Bel Canto - Spiderdust 3:58
14 . La Floa Maldita - Sorciére (Radio Version) 3:45
15 . Forma Tadre - Looking Glass Men 4:30
16 . Delerium - Prophecy 5:18
Код:
Exact Audio Copy V1.3 from 2. September 2016
Отчёт EAC об извлечении, выполненном 13. марта 2020, 13:10
Various / We Came to Dance, Vol. VIII
Дисковод: HL-DT-STDVD+-RW GU90N   Adapter: 1  ID: 0
Режим чтения                 : Достоверность
Использование точного потока : Да
Отключение кэша аудио        : Нет
Использование указателей C2  : Да
Коррекция смещения при чтении                     : 102
Способность читать области Lead-in и Lead-out     : Нет
Заполнение пропущенных сэмплов тишиной            : Да
Удаление блоков с тишиной в начале и конце        : Нет
При вычислениях CRC использовались нулевые сэмплы : Да
Интерфейс                                         : Встроенный Win32-интерфейс для Win NT/2000
Выходной формат : Внутренние WAV-операции
Формат сэмплов  : 44.100 Гц; 16 бит; стерео
TOC извлечённого CD
     Трек |   Старт  | Длительность | Начальный сектор | Конечный сектор
    ---------------------------------------------------------------------
       1  |  0:00.00 |    5:48.35   |           0      |      26134
       2  |  5:48.35 |    4:49.47   |       26135      |      47856
       3  | 10:38.07 |    4:39.20   |       47857      |      68801
       4  | 15:17.27 |    5:02.65   |       68802      |      91516
       5  | 20:20.17 |    6:08.03   |       91517      |     119119
       6  | 26:28.20 |    4:37.70   |      119120      |     139964
       7  | 31:06.15 |    5:14.52   |      139965      |     163566
       8  | 36:20.67 |    4:51.25   |      163567      |     185416
       9  | 41:12.17 |    4:39.13   |      185417      |     206354
      10  | 45:51.30 |    2:17.02   |      206355      |     216631
      11  | 48:08.32 |    4:46.55   |      216632      |     238136
      12  | 52:55.12 |    6:43.18   |      238137      |     268379
      13  | 59:38.30 |    3:58.72   |      268380      |     286301
      14  | 63:37.27 |    3:46.63   |      286302      |     303314
      15  | 67:24.15 |    4:31.02   |      303315      |     323641
      16  | 71:55.17 |    5:17.58   |      323642      |     347474
Характеристики диапазона извлечения и сообщения об ошибках
Выбранный диапазон
     Имя файла D:\We Came To Dance - Indie Dancefloor\Various - We Came To Dance  Vol. VIII.1996\Various - We Came to Dance, Vol. VIII.wav
     Пиковый уровень 100.0 %
     Скорость извлечения 13.2 X
     Качество диапазона 100.0 %
     CRC копии AA1896DD
     Копирование... OK
Ошибок не произошло
AccurateRip: сводка
Трек  1  : извлечено точно (доверие 8)  [13076264]  (AR v2)
Трек  2  : извлечено точно (доверие 8)  [60F316A2]  (AR v2)
Трек  3  : извлечено точно (доверие 8)  [5C692F2F]  (AR v2)
Трек  4  : извлечено точно (доверие 8)  [29A37532]  (AR v2)
Трек  5  : извлечено точно (доверие 8)  [48871680]  (AR v2)
Трек  6  : извлечено точно (доверие 8)  [1080F528]  (AR v2)
Трек  7  : извлечено точно (доверие 8)  [C2803029]  (AR v2)
Трек  8  : извлечено точно (доверие 8)  [3CA92CF1]  (AR v2)
Трек  9  : извлечено точно (доверие 8)  [EE67C702]  (AR v2)
Трек 10  : извлечено точно (доверие 8)  [33AA498D]  (AR v2)
Трек 11  : извлечено точно (доверие 8)  [512899C2]  (AR v2)
Трек 12  : извлечено точно (доверие 8)  [5B4C5ED5]  (AR v2)
Трек 13  : извлечено точно (доверие 8)  [97C71A5C]  (AR v2)
Трек 14  : извлечено точно (доверие 8)  [590E7282]  (AR v2)
Трек 15  : извлечено точно (доверие 8)  [033B5E6E]  (AR v2)
Трек 16  : извлечено точно (доверие 8)  [FEA883C6]  (AR v2)
Все треки извлечены точно
Конец отчёта
---- CUETools DB Plugin V2.1.6
[CTDB TOCID: G8pQDnkDFNk3WVm7r58_VtbNZPI-] found
Submit result: already submitted
Track | CTDB Status
  1   | (28/28) Accurately ripped
  2   | (28/28) Accurately ripped
  3   | (28/28) Accurately ripped
  4   | (28/28) Accurately ripped
  5   | (28/28) Accurately ripped
  6   | (28/28) Accurately ripped
  7   | (28/28) Accurately ripped
  8   | (28/28) Accurately ripped
  9   | (28/28) Accurately ripped
 10   | (27/28) Accurately ripped
 11   | (28/28) Accurately ripped
 12   | (28/28) Accurately ripped
 13   | (28/28) Accurately ripped
 14   | (28/28) Accurately ripped
 15   | (28/28) Accurately ripped
 16   | (27/28) Accurately ripped
==== Контрольная сумма отчёта 2B0D0E19FDE43288DE35A69ADD10CE356606C92C4ECD69B15DDD9680AB2277FA ====
Код:
REM GENRE "EBM Industrial"
REM DATE 1996
REM DISCID EA121910
REM COMMENT "ExactAudioCopy v1.3"
PERFORMER "Various"
TITLE "We Came to Dance, Vol. VIII"
REM COMPOSER ""
FILE "Various - We Came to Dance, Vol. VIII.flac" WAVE
  TRACK 01 AUDIO
    TITLE "Non-Stop Violence"
    PERFORMER "Apoptygma Berzerk"
    REM COMPOSER ""
    INDEX 01 00:00:00
  TRACK 02 AUDIO
    TITLE "Soul Cremation"
    PERFORMER "Delay"
    REM COMPOSER ""
    INDEX 00 05:47:55
    INDEX 01 05:48:35
  TRACK 03 AUDIO
    TITLE "Barcode (edit 3.0)"
    PERFORMER "Front Line Assembly"
    REM COMPOSER ""
    INDEX 00 10:36:70
    INDEX 01 10:38:07
  TRACK 04 AUDIO
    TITLE "Another Day"
    PERFORMER "Ichor"
    REM COMPOSER ""
    INDEX 00 15:16:45
    INDEX 01 15:17:27
  TRACK 05 AUDIO
    TITLE "Under Your Skin"
    PERFORMER "Silke Bischoff"
    REM COMPOSER ""
    INDEX 00 20:19:40
    INDEX 01 20:20:17
  TRACK 06 AUDIO
    TITLE "We Deserve It All"
    PERFORMER "Le.ther Strip"
    REM COMPOSER ""
    INDEX 00 26:26:15
    INDEX 01 26:28:20
  TRACK 07 AUDIO
    TITLE "Colour of Truth"
    PERFORMER "Girls Under Glass"
    REM COMPOSER ""
    INDEX 00 31:05:17
    INDEX 01 31:06:15
  TRACK 08 AUDIO
    TITLE "Du riechst so gut"
    PERFORMER "Rammstein"
    REM COMPOSER ""
    INDEX 00 36:19:37
    INDEX 01 36:20:67
  TRACK 09 AUDIO
    TITLE "Metalmorphosis"
    PERFORMER "Die Krupps"
    REM COMPOSER ""
    INDEX 00 41:10:40
    INDEX 01 41:12:17
  TRACK 10 AUDIO
    TITLE "Hey Fuck da World"
    PERFORMER "Klute"
    REM COMPOSER ""
    INDEX 00 45:49:37
    INDEX 01 45:51:30
  TRACK 11 AUDIO
    TITLE "Figurehead"
    PERFORMER "Covenant"
    REM COMPOSER ""
    INDEX 00 48:07:27
    INDEX 01 48:08:32
  TRACK 12 AUDIO
    TITLE "Toys for Alice"
    PERFORMER "Sleeping Dogs Wake"
    REM COMPOSER ""
    INDEX 00 52:53:52
    INDEX 01 52:55:12
  TRACK 13 AUDIO
    TITLE "Spiderdust"
    PERFORMER "Bel Canto"
    REM COMPOSER ""
    INDEX 00 59:37:00
    INDEX 01 59:38:30
  TRACK 14 AUDIO
    TITLE "Sorciere (radio version)"
    PERFORMER "La Floa Maldita"
    REM COMPOSER ""
    INDEX 00 63:36:10
    INDEX 01 63:37:27
  TRACK 15 AUDIO
    TITLE "Looking Glass Men"
    PERFORMER "Forma Tadre"
    REM COMPOSER ""
    INDEX 00 67:22:45
    INDEX 01 67:24:15
  TRACK 16 AUDIO
    TITLE "Prophecy"
    PERFORMER "Delerium"
    REM COMPOSER ""
    INDEX 00 71:54:47
    INDEX 01 71:55:17
Код:
foobar2000 1.4 / Dynamic Range Meter 1.1.1
log date: 2020-03-13 13:11:46
--------------------------------------------------------------------------------
Analyzed: Delay / We Came to Dance, Vol. VIII (1)
          Delerium / We Came to Dance, Vol. VIII (2)
--------------------------------------------------------------------------------
DR         Peak         RMS     Duration Track
--------------------------------------------------------------------------------
DR8       -0.14 dB   -10.64 dB      4:50 02-Soul Cremation
DR8       -0.10 dB    -9.70 dB      5:18 16-Prophecy
--------------------------------------------------------------------------------
Number of tracks:  2
Official DR value: DR8
Samplerate:        44100 Hz
Channels:          2
Bits per sample:   16
Bitrate:           1411 kbps
Codec:             PCM
================================================================================
--------------------------------------------------------------------------------
Analyzed: Die Krupps / We Came to Dance, Vol. VIII (1)
          Forma Tadre / We Came to Dance, Vol. VIII (2)
--------------------------------------------------------------------------------
DR         Peak         RMS     Duration Track
--------------------------------------------------------------------------------
DR8       -0.14 dB    -8.71 dB      4:39 09-Metalmorphosis
DR9       -0.14 dB   -11.05 dB      4:31 15-Looking Glass Men
--------------------------------------------------------------------------------
Number of tracks:  2
Official DR value: DR9
Samplerate:        44100 Hz
Channels:          2
Bits per sample:   16
Bitrate:           1411 kbps
Codec:             PCM
================================================================================
--------------------------------------------------------------------------------
Analyzed: Front Line Assembly / We Came to Dance, Vol. VIII (1)
          Girls Under Glass / We Came to Dance, Vol. VIII (2)
--------------------------------------------------------------------------------
DR         Peak         RMS     Duration Track
--------------------------------------------------------------------------------
DR8       -0.14 dB    -9.51 dB      4:39 03-Barcode (edit 3.0)
DR9       -0.33 dB   -10.43 dB      5:15 07-Colour of Truth
--------------------------------------------------------------------------------
Number of tracks:  2
Official DR value: DR8
Samplerate:        44100 Hz
Channels:          2
Bits per sample:   16
Bitrate:           1411 kbps
Codec:             PCM
================================================================================
--------------------------------------------------------------------------------
Analyzed: Ichor / We Came to Dance, Vol. VIII (1)
          Klute / We Came to Dance, Vol. VIII (2)
          La Floa Maldita / We Came to Dance, Vol. VIII (3)
--------------------------------------------------------------------------------
DR         Peak         RMS     Duration Track
--------------------------------------------------------------------------------
DR8       -0.14 dB   -10.64 dB      5:03 04-Another Day
DR8       -0.07 dB    -9.17 dB      2:17 10-Hey Fuck da World
DR9       -0.14 dB    -9.75 dB      3:47 14-Sorciere (radio version)
--------------------------------------------------------------------------------
Number of tracks:  3
Official DR value: DR8
Samplerate:        44100 Hz
Channels:          2
Bits per sample:   16
Bitrate:           1411 kbps
Codec:             PCM
================================================================================
--------------------------------------------------------------------------------
Analyzed: Le.ther Strip / We Came to Dance, Vol. VIII (1)
          Rammstein / We Came to Dance, Vol. VIII (2)
--------------------------------------------------------------------------------
DR         Peak         RMS     Duration Track
--------------------------------------------------------------------------------
DR9       -0.14 dB   -12.11 dB      4:38 06-We Deserve It All
DR9       -0.14 dB    -9.79 dB      4:51 08-Du riechst so gut
--------------------------------------------------------------------------------
Number of tracks:  2
Official DR value: DR9
Samplerate:        44100 Hz
Channels:          2
Bits per sample:   16
Bitrate:           1411 kbps
Codec:             PCM
==============================================================
Правила, инструкции, FAQ!!!
Торрент  Добавлен [26 июн 2020, 17:53] Скачать торрент Магнет ссылка
Скачать торрент
[ Размер 11.72 КБ / Просмотров 9 ]

Статус
Проверен 
 
Размер  545.41 МБ
Приватный: Нет (DHT включён)
.torrent скачан  0
 


     Отправить личное сообщение
   
Страница 1 из 1
Показать сообщения за:  Поле сортировки  
Начать новую тему Ответить на тему


Сейчас этот форум просматривают: нет зарегистрированных пользователей и гости: 0


Вы не можете начинать темы
Вы не можете отвечать на сообщения
Вы не можете редактировать свои сообщения
Вы не можете удалять свои сообщения
Вы не можете добавлять вложения

Перейти:  
cron