Начать новую тему Ответить на тему
Статистика раздачи
Размер: 378.65 МБ | Добавлен: 26 июн 2020, 20:12 | Скачали: 0
Сидеров: 0  [0 байт/сек]    Личеров: 0  [0 байт/сек]
Пред. тема | След. тема 

Автор
Сообщение

СообщениеДобавлено: 26 июн 2020, 20:12 

Ответить с цитатой 

In Strict Confidence - Where Sun And Moon Unite (2006)
Жанр: EBM, Industrial, Synth-pop
Год выпуска диска: 2006
Страна: Germany
Аудио кодек: FLAC
Тип рипа: image+.cue
Битрейт аудио: lossless
Продолжительность: 00:54:18
Трэклист:
1 Promised Land (Extended Version) (7:11)
2 Paradise Regained (6:13)
3 Pearl (4:46)
4 Promised Land (Club Mix) (5:34)
5 Wintermoon (Samsas Traum Remix) (4:10)
6 Diamond (5:30)
7 Emergency (Blind Faith And Envy Version) (4:24)
8 Paradise Regained (Patenbrigade:Wolff:Remix (4:06)
9 Promised Land (Blutengel Remix) (5:43)
10 Samael (Lucas Boysen Mix) (7:05)
Exact Audio Copy V0.99 prebeta 4 from 23. January 2008
Отчёт EAC об извлечении, выполненном 19. июля 2008, 18:08
In Strict Confidence / Where Sun and Moon Unite
Дисковод: Optiarc DVD RW AD-5200A Adapter: 0 ID: 1
Режим чтения : Достоверность
Использование точного потока : Да
Отключение кэша аудио : Да
Использование указателей C2 : Нет
Коррекция смещения при чтении : 48
Способность читать области Lead-in и Lead-out : Нет
Заполнение пропущенных сэмплов тишиной : Да
Удаление блоков с тишиной в начале и конце : Нет
При вычислениях CRC использовались нулевые сэмплы : Да
Интерфейс : Встроенный Win32-интерфейс для Win NT/2000
Выходной формат : Пользовательский кодировщик
Выбранный битрейт : 1024 kBit/s
Качество : Высокий
Добавление ID3-тэга : Нет
Утилита сжатия : C:\Program Files\Exact Audio Copy\FLAC\FLAC.EXE
Дополнительные параметры : -8 -V -T "ARTIST=%a" -T "TITLE=%t" -T "ALBUM=%g" -T "DATE=%y" -T "TRACKNUMBER=%n" -T "GENRE=%m" -T "COMMENT=%e" %s -o %d
TOC извлечённого CD
Трек | Старт | Длительность | Начальный сектор | Конечный сектор
---------------------------------------------------------------------
1 | 0:00.00 | 7:11.65 | 0 | 32389
2 | 7:11.65 | 6:15.10 | 32390 | 60524
3 | 13:27.00 | 4:48.10 | 60525 | 82134
4 | 18:15.10 | 5:28.01 | 82135 | 106735
5 | 23:43.11 | 4:10.57 | 106736 | 125542
6 | 27:53.68 | 5:16.16 | 125543 | 149258
7 | 33:10.09 | 4:23.23 | 149259 | 169006
8 | 37:33.32 | 4:02.59 | 169007 | 187215
9 | 41:36.16 | 5:39.21 | 187216 | 212661
10 | 47:15.37 | 7:02.41 | 212662 | 244352
Характеристики диапазона извлечения и сообщения об ошибках
Выбранный диапазон
Имя файла C:\Documents and Settings\Администратор\Рабочий стол\In Strict Confidence - Where Sun and Moon Unite.wav
Пиковый уровень 99.9 %
Качество диапазона 100.0 %
CRC теста 750DAB85
CRC копии 750DAB85
Копирование... OK
Ошибок не произошло
Конец отчёта
AUDIOCHECKER v2.0 beta (build 457) - by Dester - opdester@freemail.hu
~~~~~~~~~~~~~~~~~~~~~~~~~~~~~~~~~~
-=== НЕ РЕДАКТИРУЙТЕ ЭТОТ ФАЙЛ! ===-
Путь: ...\(015) In Strict Confidence - Where Sun and Moon Unite (2006)
1 -=- In Strict Confidence - Where Sun and Moon Unite.flac -=- CDDA (100%)
116734388
Правила, инструкции, FAQ!!!
Торрент  Добавлен [26 июн 2020, 20:12] Скачать торрент Магнет ссылка
Скачать торрент
[ Размер 15.93 КБ / Просмотров 8 ]

Статус
Проверен 
 
Размер  378.65 МБ
Приватный: Нет (DHT включён)
.torrent скачан  0
 


     Отправить личное сообщение
   
Страница 1 из 1
Показать сообщения за:  Поле сортировки  
Начать новую тему Ответить на тему


Сейчас этот форум просматривают: нет зарегистрированных пользователей и гости: 0


Вы не можете начинать темы
Вы не можете отвечать на сообщения
Вы не можете редактировать свои сообщения
Вы не можете удалять свои сообщения
Вы не можете добавлять вложения

Перейти:  
cron