Начать новую тему Ответить на тему
Статистика раздачи
Размер: 327.08 МБ | Добавлен: 26 июн 2020, 17:57 | Скачали: 0
Сидеров: 0  [0 байт/сек]    Личеров: 0  [0 байт/сек]
Пред. тема | След. тема 

Автор
Сообщение

СообщениеДобавлено: 26 июн 2020, 17:57 

Ответить с цитатой 

Signal Aout 42 - Pro Patria
Жанр: EBM, Industrial, Synth-pop
Год выпуска диска: 1989
Производитель диска: Бельгия
Аудио кодек: FLAC
Тип рипа: tracks+.cue
Битрейт аудио: lossless
Трэклист:
1 Over The Sea (2:33)
2 Submarine Dance (3:50)
3 You Are (4:46)
4 Carnaval (5:15)
5 Instr. Robert (3:40)
6 Right Thing (3:59)
7 Pro Patria (4:33)
8 Voice Of Hell (4:57)
9 Secret Garden (4:22)
10 Autopsy (5:20)
11 Why Not (5:42)
12 Pleasure And Crime (4:51)
Exact Audio Copy V0.99 prebeta 4 from 23. January 2008
EAC extraction logfile from 24. February 2009, 11:36
Signal Aout 42 / Pro Patria
Used drive : SONY DVD RW DRU-710A Adapter: 0 ID: 1
Read mode : Secure
Utilize accurate stream : Yes
Defeat audio cache : Yes
Make use of C2 pointers : No
Read offset correction : 12
Overread into Lead-In and Lead-Out : No
Fill up missing offset samples with silence : Yes
Delete leading and trailing silent blocks : No
Null samples used in CRC calculations : Yes
Used interface : Native Win32 interface for Win NT & 2000
Gap handling : Appended to previous track
Used output format : User Defined Encoder
Selected bitrate : 128 kBit/s
Quality : High
Add ID3 tag : No
Command line compressor : C:\Program Files\FLAC\flac.exe
Additional command line options : -V -8 -T "artist=%a" -T "title=%t" -T "album=%g" -T "date=%y" -T "tracknumber=%n" -T "genre=%m" %s
TOC of the extracted CD
Track | Start | Length | Start sector | End sector
---------------------------------------------------------
1 | 0:00.00 | 2:33.40 | 0 | 11514
2 | 2:33.40 | 3:50.05 | 11515 | 28769
3 | 6:23.45 | 4:46.72 | 28770 | 50291
4 | 11:10.42 | 5:15.43 | 50292 | 73959
5 | 16:26.10 | 3:40.55 | 73960 | 90514
6 | 20:06.65 | 3:59.27 | 90515 | 108466
7 | 24:06.17 | 4:33.53 | 108467 | 128994
8 | 28:39.70 | 4:57.17 | 128995 | 151286
9 | 33:37.12 | 4:22.38 | 151287 | 170974
10 | 37:59.50 | 5:20.10 | 170975 | 194984
11 | 43:19.60 | 5:42.55 | 194985 | 220689
12 | 49:02.40 | 4:51.27 | 220690 | 242541
Track 1
Filename E:\Signal Aout 42 - Pro Patria (FLAC)\01 - Over The Sea.wav
Pre-gap length 0:00:02.00
Peak level 39.2 %
Track quality 100.0 %
Test CRC 552A085D
Copy CRC 552A085D
Accurately ripped (confidence 4) [F89B8AA8]
Copy OK
Track 2
Filename E:\Signal Aout 42 - Pro Patria (FLAC)\02 - Suybmarine Dance.wav
Peak level 98.2 %
Track quality 100.0 %
Test CRC 1817D054
Copy CRC 1817D054
Accurately ripped (confidence 4) [940F29E9]
Copy OK
Track 3
Filename E:\Signal Aout 42 - Pro Patria (FLAC)\03 - You Are.wav
Pre-gap length 0:00:01.04
Peak level 97.7 %
Track quality 100.0 %
Test CRC B63A10BD
Copy CRC B63A10BD
Accurately ripped (confidence 4) [9FF8F3BF]
Copy OK
Track 4
Filename E:\Signal Aout 42 - Pro Patria (FLAC)\04 - Carnaval.wav
Pre-gap length 0:00:01.26
Peak level 96.4 %
Track quality 100.0 %
Test CRC 2F0DB54E
Copy CRC 2F0DB54E
Accurately ripped (confidence 4) [57A07A64]
Copy OK
Track 5
Filename E:\Signal Aout 42 - Pro Patria (FLAC)\05 - Instr. Robert.wav
Pre-gap length 0:00:01.06
Peak level 89.0 %
Track quality 100.0 %
Test CRC 8A0F4324
Copy CRC 8A0F4324
Accurately ripped (confidence 4) [30A31EA5]
Copy OK
Track 6
Filename E:\Signal Aout 42 - Pro Patria (FLAC)\06 - Right Thing.wav
Pre-gap length 0:00:01.50
Peak level 98.2 %
Track quality 100.0 %
Test CRC 969522F9
Copy CRC 969522F9
Accurately ripped (confidence 4) [B309543C]
Copy OK
Track 7
Filename E:\Signal Aout 42 - Pro Patria (FLAC)\07 - Pro Patria.wav
Pre-gap length 0:00:01.13
Peak level 87.9 %
Track quality 100.0 %
Test CRC 243C94D7
Copy CRC 243C94D7
Accurately ripped (confidence 4) [929039D2]
Copy OK
Track 8
Filename E:\Signal Aout 42 - Pro Patria (FLAC)\08 - Voise Of Hell.wav
Pre-gap length 0:00:01.30
Peak level 97.0 %
Track quality 100.0 %
Test CRC ADA00D04
Copy CRC ADA00D04
Accurately ripped (confidence 3) [C04A3844]
Copy OK
Track 9
Filename E:\Signal Aout 42 - Pro Patria (FLAC)\09 - Secret Garden.wav
Pre-gap length 0:00:00.96
Peak level 98.2 %
Track quality 100.0 %
Test CRC 1EB9A815
Copy CRC 1EB9A815
Accurately ripped (confidence 4) [04A80C85]
Copy OK
Track 10
Filename E:\Signal Aout 42 - Pro Patria (FLAC)\10 - Autopsy.wav
Pre-gap length 0:00:01.30
Peak level 97.7 %
Track quality 99.9 %
Test CRC 2E62ECA8
Copy CRC 2E62ECA8
Accurately ripped (confidence 4) [479CF815]
Copy OK
Track 11
Filename E:\Signal Aout 42 - Pro Patria (FLAC)\11 - Why Not.wav
Pre-gap length 0:00:00.90
Peak level 97.9 %
Track quality 100.0 %
Test CRC F4E65227
Copy CRC F4E65227
Accurately ripped (confidence 4) [86D14D4D]
Copy OK
Track 12
Filename E:\Signal Aout 42 - Pro Patria (FLAC)\12 - Pleasure and crime.wav
Pre-gap length 0:00:02.17
Peak level 98.4 %
Track quality 100.0 %
Test CRC 5DBE21D3
Copy CRC 5DBE21D3
Accurately ripped (confidence 4) [2093468F]
Copy OK
All tracks accurately ripped
No errors occurred
End of status report
Правила, инструкции, FAQ!!!
Торрент  Добавлен [26 июн 2020, 17:57] Скачать торрент Магнет ссылка
Скачать торрент
[ Размер 13.95 КБ / Просмотров 7 ]

Статус
Проверен 
 
Размер  327.08 МБ
Приватный: Нет (DHT включён)
.torrent скачан  0
 


     Отправить личное сообщение
   
Страница 1 из 1
Показать сообщения за:  Поле сортировки  
Начать новую тему Ответить на тему


Сейчас этот форум просматривают: нет зарегистрированных пользователей и гости: 0


Вы не можете начинать темы
Вы не можете отвечать на сообщения
Вы не можете редактировать свои сообщения
Вы не можете удалять свои сообщения
Вы не можете добавлять вложения

Перейти:  
cron