Начать новую тему Ответить на тему
Статистика раздачи
Размер: 761.07 МБ | Добавлен: 26 июн 2020, 17:04 | Скачали: 0
Сидеров: 0  [0 байт/сек]    Личеров: 0  [0 байт/сек]
Пред. тема | След. тема 

Автор
Сообщение

СообщениеДобавлено: 26 июн 2020, 17:04 

Ответить с цитатой 

Plasmodivm / The Post-Modern Prometheus
Жанр: EBM, Industrial, Synth-pop
Год издания диска: 2011
Издатель (лейбл): Caustic Records
Номер по каталогу: CRR029
Страна: Spain
Аудиокодек: FLAC (*.flac)
Тип рипа: tracks+.cue
Битрейт аудио: lossless
Продолжительность: 01:12:34
Источник (релизер): What CD
Наличие сканов в содержимом раздачи: да
Треклист:
01 I Have Killed A Man 5:37
02 Instinto Homicida 5:53
03 Voices 4:20
04 Dead Inside 4:38
05 Vía Negativa 5:35
06 Unbreakable Will 5:17
07 Post-Modern/Post-Human 6:06
08 The Beginning Of My End 4:45
09 The Fear Of Being Alive 3:00
10 High-Speed Collision 5:09
11 Smashing White Pills 4:27
12 A New Beginning 5:46
13 Lost Dreams 4:43
14 Réquiem (Missa Pro Defunctis) 7:18
Код:
Exact Audio Copy V1.0 beta 2 from 29. April 2011
EAC extraction logfile from 16. July 2011, 21:59
Plasmodivm / The Post-Modern Prometheus [JWLCS, cat. CRR029]
Used drive  : TDK     CDRW4800B   Adapter: 0  ID: 1
Read mode               : Secure
Utilize accurate stream : Yes
Defeat audio cache      : Yes
Make use of C2 pointers : No
Read offset correction                      : 6
Overread into Lead-In and Lead-Out          : No
Fill up missing offset samples with silence : Yes
Delete leading and trailing silent blocks   : No
Null samples used in CRC calculations       : Yes
Used interface                              : Native Win32 interface for Win NT & 2000
Gap handling                                : Appended to previous track
Used output format              : User Defined Encoder
Selected bitrate                : 768 kBit/s
Quality                         : High
Add ID3 tag                     : No
Command line compressor         : E:\flac.exe
Additional command line options : -8 -V -T "ARTIST=%artist%" -T "TITLE=%title%" -T "ALBUM=%albumtitle%" -T "DATE=%year%" -T "TRACKNUMBER=%tracknr%" -T "GENRE=%genre%" -T "TOTALTRACKS=%numtracks%" -T "COMMENT=Lbl:Caustic Records C:CRR029 BC:8 497230 300291"
TOC of the extracted CD
     Track |   Start  |  Length  | Start sector | End sector
    ---------------------------------------------------------
        1  |  0:00.00 |  5:36.47 |         0    |    25246
        2  |  5:36.47 |  5:53.28 |     25247    |    51749
        3  | 11:30.00 |  4:19.54 |     51750    |    71228
        4  | 15:49.54 |  4:38.01 |     71229    |    92079
        5  | 20:27.55 |  5:35.26 |     92080    |   117230
        6  | 26:03.06 |  5:17.11 |    117231    |   141016
        7  | 31:20.17 |  6:06.34 |    141017    |   168500
        8  | 37:26.51 |  4:45.26 |    168501    |   189901
        9  | 42:12.02 |  3:00.34 |    189902    |   203435
       10  | 45:12.36 |  5:08.51 |    203436    |   226586
       11  | 50:21.12 |  4:27.23 |    226587    |   246634
       12  | 54:48.35 |  5:45.69 |    246635    |   272578
       13  | 60:34.29 |  4:42.39 |    272579    |   293767
       14  | 65:16.68 |  7:18.01 |    293768    |   326618
Track  1
     Filename E:\NYAQ\Room_3x08\Plasmodivm - 2011 - The Post-Modern Prometheus [JWLCS, cat. CRR029]\01 - Plasmodivm - I Have Killed a Man.wav
     Pre-gap length  0:00:02.00
     Peak level 100.0 %
     Extraction speed 4.4 X
     Track quality 99.9 %
     Test CRC 0C216E5F
     Copy CRC 0C216E5F
     Track not present in AccurateRip database
     Copy OK
Track  2
     Filename E:\NYAQ\Room_3x08\Plasmodivm - 2011 - The Post-Modern Prometheus [JWLCS, cat. CRR029]\02 - Plasmodivm - Instinto Homicida.wav
     Pre-gap length  0:00:02.00
     Peak level 100.0 %
     Extraction speed 5.8 X
     Track quality 100.0 %
     Test CRC 5F8061A5
     Copy CRC 5F8061A5
     Track not present in AccurateRip database
     Copy OK
Track  3
     Filename E:\NYAQ\Room_3x08\Plasmodivm - 2011 - The Post-Modern Prometheus [JWLCS, cat. CRR029]\03 - Plasmodivm - Voices.wav
     Pre-gap length  0:00:02.00
     Peak level 100.0 %
     Extraction speed 6.1 X
     Track quality 100.0 %
     Test CRC 56E73D37
     Copy CRC 56E73D37
     Track not present in AccurateRip database
     Copy OK
Track  4
     Filename E:\NYAQ\Room_3x08\Plasmodivm - 2011 - The Post-Modern Prometheus [JWLCS, cat. CRR029]\04 - Plasmodivm - Dead Inside.wav
     Pre-gap length  0:00:02.00
     Peak level 100.0 %
     Extraction speed 6.6 X
     Track quality 100.0 %
     Test CRC 116E68EF
     Copy CRC 116E68EF
     Track not present in AccurateRip database
     Copy OK
Track  5
     Filename E:\NYAQ\Room_3x08\Plasmodivm - 2011 - The Post-Modern Prometheus [JWLCS, cat. CRR029]\05 - Plasmodivm - Via Negativa.wav
     Pre-gap length  0:00:02.00
     Peak level 100.0 %
     Extraction speed 7.2 X
     Track quality 100.0 %
     Test CRC 5E4ED55F
     Copy CRC 5E4ED55F
     Track not present in AccurateRip database
     Copy OK
Track  6
     Filename E:\NYAQ\Room_3x08\Plasmodivm - 2011 - The Post-Modern Prometheus [JWLCS, cat. CRR029]\06 - Plasmodivm - Unbreakable Will.wav
     Pre-gap length  0:00:02.00
     Peak level 100.0 %
     Extraction speed 7.7 X
     Track quality 100.0 %
     Test CRC B8A573C1
     Copy CRC B8A573C1
     Track not present in AccurateRip database
     Copy OK
Track  7
     Filename E:\NYAQ\Room_3x08\Plasmodivm - 2011 - The Post-Modern Prometheus [JWLCS, cat. CRR029]\07 - Plasmodivm - Post-Modern  -  Post-Human.wav
     Pre-gap length  0:00:02.00
     Peak level 100.0 %
     Extraction speed 8.2 X
     Track quality 100.0 %
     Test CRC EC06754B
     Copy CRC EC06754B
     Track not present in AccurateRip database
     Copy OK
Track  8
     Filename E:\NYAQ\Room_3x08\Plasmodivm - 2011 - The Post-Modern Prometheus [JWLCS, cat. CRR029]\08 - Plasmodivm - The Beginning of My End.wav
     Pre-gap length  0:00:02.00
     Peak level 100.0 %
     Extraction speed 8.4 X
     Track quality 100.0 %
     Test CRC B9AD8211
     Copy CRC B9AD8211
     Track not present in AccurateRip database
     Copy OK
Track  9
     Filename E:\NYAQ\Room_3x08\Plasmodivm - 2011 - The Post-Modern Prometheus [JWLCS, cat. CRR029]\09 - Plasmodivm - The Fear of Being Alive.wav
     Pre-gap length  0:00:02.00
     Peak level 100.0 %
     Extraction speed 8.1 X
     Track quality 100.0 %
     Test CRC F7710850
     Copy CRC F7710850
     Track not present in AccurateRip database
     Copy OK
Track 10
     Filename E:\NYAQ\Room_3x08\Plasmodivm - 2011 - The Post-Modern Prometheus [JWLCS, cat. CRR029]\10 - Plasmodivm - High-Speed Collision.wav
     Pre-gap length  0:00:02.00
     Peak level 100.0 %
     Extraction speed 9.1 X
     Track quality 100.0 %
     Test CRC 111FA1C7
     Copy CRC 111FA1C7
     Track not present in AccurateRip database
     Copy OK
Track 11
     Filename E:\NYAQ\Room_3x08\Plasmodivm - 2011 - The Post-Modern Prometheus [JWLCS, cat. CRR029]\11 - Plasmodivm - Smashing White Pills.wav
     Pre-gap length  0:00:02.00
     Peak level 100.0 %
     Extraction speed 9.2 X
     Track quality 100.0 %
     Test CRC B28411EA
     Copy CRC B28411EA
     Track not present in AccurateRip database
     Copy OK
Track 12
     Filename E:\NYAQ\Room_3x08\Plasmodivm - 2011 - The Post-Modern Prometheus [JWLCS, cat. CRR029]\12 - Plasmodivm - A New Beginning.wav
     Pre-gap length  0:00:02.00
     Peak level 100.0 %
     Extraction speed 7.6 X
     Track quality 99.9 %
     Test CRC 67DF7236
     Copy CRC 67DF7236
     Track not present in AccurateRip database
     Copy OK
Track 13
     Filename E:\NYAQ\Room_3x08\Plasmodivm - 2011 - The Post-Modern Prometheus [JWLCS, cat. CRR029]\13 - Plasmodivm - Lost Dreams.wav
     Pre-gap length  0:00:02.00
     Peak level 100.0 %
     Extraction speed 6.9 X
     Track quality 99.9 %
     Test CRC E4DA832E
     Copy CRC E4DA832E
     Track not present in AccurateRip database
     Copy OK
Track 14
     Filename E:\NYAQ\Room_3x08\Plasmodivm - 2011 - The Post-Modern Prometheus [JWLCS, cat. CRR029]\14 - Plasmodivm - Requiem (Missa Pro Defunctis).wav
     Pre-gap length  0:00:02.00
     Peak level 100.0 %
     Extraction speed 8.3 X
     Track quality 100.0 %
     Test CRC FADADB43
     Copy CRC FADADB43
     Track not present in AccurateRip database
     Copy OK
None of the tracks are present in the AccurateRip database
No errors occurred
End of status report
==== Log checksum E655973259CACEDF8DF05B968CEE56C5C2BBB4F52016E30AC6B0182838D90DC4 ====
Код:
REM GENRE Industrial
REM DATE 2011
REM DISCID CB11020E
REM COMMENT "ExactAudioCopy v1.0b2"
PERFORMER "Plasmodivm"
TITLE "The Post-Modern Prometheus [JWLCS, cat. CRR029]"
FILE "01 - Plasmodivm - I Have Killed a Man.wav" WAVE
  TRACK 01 AUDIO
    TITLE "I Have Killed a Man"
    PERFORMER "Plasmodivm"
    INDEX 01 00:00:00
  TRACK 02 AUDIO
    TITLE "Instinto Homicida"
    PERFORMER "Plasmodivm"
    INDEX 00 05:34:47
FILE "02 - Plasmodivm - Instinto Homicida.wav" WAVE
    INDEX 01 00:00:00
  TRACK 03 AUDIO
    TITLE "Voices"
    PERFORMER "Plasmodivm"
    INDEX 00 05:51:28
FILE "03 - Plasmodivm - Voices.wav" WAVE
    INDEX 01 00:00:00
  TRACK 04 AUDIO
    TITLE "Dead Inside"
    PERFORMER "Plasmodivm"
    INDEX 00 04:17:54
FILE "04 - Plasmodivm - Dead Inside.wav" WAVE
    INDEX 01 00:00:00
  TRACK 05 AUDIO
    TITLE "Via Negativa"
    PERFORMER "Plasmodivm"
    INDEX 00 04:36:01
FILE "05 - Plasmodivm - Via Negativa.wav" WAVE
    INDEX 01 00:00:00
  TRACK 06 AUDIO
    TITLE "Unbreakable Will"
    PERFORMER "Plasmodivm"
    INDEX 00 05:33:26
FILE "06 - Plasmodivm - Unbreakable Will.wav" WAVE
    INDEX 01 00:00:00
  TRACK 07 AUDIO
    TITLE "Post-Modern / Post-Human"
    PERFORMER "Plasmodivm"
    INDEX 00 05:15:11
FILE "07 - Plasmodivm - Post-Modern  -  Post-Human.wav" WAVE
    INDEX 01 00:00:00
  TRACK 08 AUDIO
    TITLE "The Beginning of My End"
    PERFORMER "Plasmodivm"
    INDEX 00 06:04:34
FILE "08 - Plasmodivm - The Beginning of My End.wav" WAVE
    INDEX 01 00:00:00
  TRACK 09 AUDIO
    TITLE "The Fear of Being Alive"
    PERFORMER "Plasmodivm"
    INDEX 00 04:43:26
FILE "09 - Plasmodivm - The Fear of Being Alive.wav" WAVE
    INDEX 01 00:00:00
  TRACK 10 AUDIO
    TITLE "High-Speed Collision"
    PERFORMER "Plasmodivm"
    INDEX 00 02:58:34
FILE "10 - Plasmodivm - High-Speed Collision.wav" WAVE
    INDEX 01 00:00:00
  TRACK 11 AUDIO
    TITLE "Smashing White Pills"
    PERFORMER "Plasmodivm"
    INDEX 00 05:06:51
FILE "11 - Plasmodivm - Smashing White Pills.wav" WAVE
    INDEX 01 00:00:00
  TRACK 12 AUDIO
    TITLE "A New Beginning"
    PERFORMER "Plasmodivm"
    INDEX 00 04:25:23
FILE "12 - Plasmodivm - A New Beginning.wav" WAVE
    INDEX 01 00:00:00
  TRACK 13 AUDIO
    TITLE "Lost Dreams"
    PERFORMER "Plasmodivm"
    INDEX 00 05:43:69
FILE "13 - Plasmodivm - Lost Dreams.wav" WAVE
    INDEX 01 00:00:00
  TRACK 14 AUDIO
    TITLE "Requiem (Missa Pro Defunctis)"
    PERFORMER "Plasmodivm"
    INDEX 00 04:40:39
FILE "14 - Plasmodivm - Requiem (Missa Pro Defunctis).wav" WAVE
    INDEX 01 00:00:00
Правила, инструкции, FAQ!!!
Торрент  Добавлен [26 июн 2020, 17:04] Скачать торрент Магнет ссылка
Скачать торрент
[ Размер 17.33 КБ / Просмотров 4 ]

Статус
Проверен 
 
Размер  761.07 МБ
Приватный: Нет (DHT включён)
.torrent скачан  0
 


     Отправить личное сообщение
   
Страница 1 из 1
Показать сообщения за:  Поле сортировки  
Начать новую тему Ответить на тему


Сейчас этот форум просматривают: нет зарегистрированных пользователей и гости: 0


Вы не можете начинать темы
Вы не можете отвечать на сообщения
Вы не можете редактировать свои сообщения
Вы не можете удалять свои сообщения
Вы не можете добавлять вложения

Перейти:  
cron