Начать новую тему Ответить на тему
Статистика раздачи
Размер: 326.66 МБ | Добавлен: 26 июн 2020, 17:21 | Скачали: 0
Сидеров: 0  [0 байт/сек]    Личеров: 0  [0 байт/сек]
Пред. тема | След. тема 

Автор
Сообщение

СообщениеДобавлено: 26 июн 2020, 17:21 

Ответить с цитатой 

Mastertune - 10 Tacles [Digipak Edition]
Жанр: EBM, Industrial, Synth-pop
Год выпуска диска: 2000
Производитель диска: Germany
Аудио кодек: FLAC
Тип рипа: image+.cue
Битрейт аудио: lossless
Продолжительность: 00:44:33
Треклист:
1. Empty 5:28
2. Emotions 4:05
3. Overdrive 3:20
4. The Grave 5:38
5. Dear Friend 4:26
6. Backrun 4:33
7. B:A:C:K 4:31
8. In A Manner Of Speaking 6:14
9. Dear Friend (Cubic Measure Fake) 6:17
Код:
Exact Audio Copy V0.99 prebeta 5 from 4. May 2009
Отчёт EAC об извлечении, выполненном 10. июля 2010, 17:25
Mastertune / 10 Tacles
Дисковод: Optiarc DVD RW AD-7201S   Adapter: 2  ID: 1
Режим чтения                 : Достоверность
Использование точного потока : Да
Отключение кэша аудио        : Да
Использование указателей C2  : Нет
Коррекция смещения при чтении                     : 48
Способность читать области Lead-in и Lead-out     : Нет
Заполнение пропущенных сэмплов тишиной            : Да
Удаление блоков с тишиной в начале и конце        : Нет
При вычислениях CRC использовались нулевые сэмплы : Да
Интерфейс                                         : Встроенный Win32-интерфейс для Win NT/2000
Выходной формат : Внутренние WAV-операции
Формат сэмплов  : 44.100 Гц; 16 бит; стерео
TOC извлечённого CD
     Трек |   Старт  | Длительность | Начальный сектор | Конечный сектор
    ---------------------------------------------------------------------
       1  |  0:00.00 |    5:25.37   |           0      |      24411
       2  |  5:25.37 |    4:05.07   |       24412      |      42793
       3  |  9:30.44 |    3:20.38   |       42794      |      57831
       4  | 12:51.07 |    5:38.48   |       57832      |      83229
       5  | 18:29.55 |    4:26.19   |       83230      |     103198
       6  | 22:55.74 |    4:33.41   |      103199      |     123714
       7  | 27:29.40 |    4:31.17   |      123715      |     144056
       8  | 32:00.57 |    6:15.72   |      144057      |     172253
       9  | 38:16.54 |    6:16.01   |      172254      |     200454
Характеристики диапазона извлечения и сообщения об ошибках
Выбранный диапазон
     Имя файла D:\Раздачи\Mastertune - 10 Tacles\Mastertune - 10 Tacles.wav
     Пиковый уровень 100.0 %
     Качество диапазона 100.0 %
     CRC теста 46B007B2
     CRC копии 46B007B2
     Копирование... OK
Ошибок не произошло
Конец отчёта
Код:
Started at: суббота, 10. 07. 2010. - 18:01.03
1 file found
1 -===- D:\Раздачи\Mastertune - 10 Tacles\Mastertune - 10 Tacles.flac
  Extracted successfully
  Conclusion: this track is CDDA with probability 100%
  Tempfile successfully deleted.
Finished at: суббота, 10. 07. 2010. - 18:06.04 (operation time: 0:05.01)
Label:Wire Productions
Catalog#:WPR 004
Format:CD, Album
Country:Germany
Released:2000
Genre:Electronic
Style:EBM, Industrial, Synth-pop
Правила, инструкции, FAQ!!!
Торрент  Добавлен [26 июн 2020, 17:21] Скачать торрент Магнет ссылка
Скачать торрент
[ Размер 13.48 КБ / Просмотров 14 ]

Статус
Проверен 
 
Размер  326.66 МБ
Приватный: Нет (DHT включён)
.torrent скачан  0
 


     Отправить личное сообщение
   
Страница 1 из 1
Показать сообщения за:  Поле сортировки  
Начать новую тему Ответить на тему


Сейчас этот форум просматривают: нет зарегистрированных пользователей и гости: 0


Вы не можете начинать темы
Вы не можете отвечать на сообщения
Вы не можете редактировать свои сообщения
Вы не можете удалять свои сообщения
Вы не можете добавлять вложения

Перейти:  
cron