Начать новую тему Ответить на тему
Статистика раздачи
Размер: 687.41 МБ | Добавлен: 26 июн 2020, 17:00 | Скачали: 0
Сидеров: 0  [0 байт/сек]    Личеров: 0  [0 байт/сек]
Пред. тема | След. тема 

Автор
Сообщение

СообщениеДобавлено: 26 июн 2020, 17:00 

Ответить с цитатой 

VA - Electropolis: Volume 2
Жанр: EBM, Industrial, Synth-pop
Страна-производитель диска: USA
Год издания диска: 2000
Издатель (лейбл): Metropolis
Номер по каталогу: MET 160
Страна: EU-US
Аудиокодек: FLAC (*.flac)
Тип рипа: image+.cue
Битрейт аудио: lossless
Продолжительность: 01:09:23
Источник (релизер): Собственный рип
Наличие сканов в содержимом раздачи: да, PNG 600dpi

01. Informatik - Things to Come (Make Love Not War mix) [04:48]
02. Mentallo & The Fixer - Murderers Among Us (Exclusive mix) [06:46]
03. Numb - Static [05:39]
04. Ikon - Triumph of My Will 05:41
05. Apoptygma Berzerk - Near (Banilla Dream mix) [05:33]
06. Crocodile Shop - Order and Joy (Exclusive mix) [03:51]
07. Funker Vogt - Martians on the Moon [04:29]
08. :Wumpscut: - Flucht (Front Line Assembly mix) [04:05]
09. Kevorkian Death Cycle - Eclipse [04:54]
10. Front 242 - Headhunter (Aghast View mix) [05:28]
11. Front Line Assembly - Masterslave (:Wumpscut: mix) [03:58]
12. In Strict Confidence - Learn to Live [04:59]
13. Project Pitchfork - Temper of Poseidon [03:47]
14. Diary of Dreams - Now This Is Human [05:14]
Код:
Exact Audio Copy V0.99 prebeta 5 from 4. May 2009
Отчёт EAC об извлечении, выполненном 12. августа 2011, 17:26
Various Artists / Electropolis Volume 2
Дисковод: ASUS    DRW-22B2ST   Adapter: 2  ID: 0
Режим чтения                 : Достоверность
Использование точного потока : Да
Отключение кэша аудио        : Да
Использование указателей C2  : Нет
Коррекция смещения при чтении                     : 6
Способность читать области Lead-in и Lead-out     : Нет
Заполнение пропущенных сэмплов тишиной            : Да
Удаление блоков с тишиной в начале и конце        : Нет
При вычислениях CRC использовались нулевые сэмплы : Да
Интерфейс                                         : Встроенный Win32-интерфейс для Win NT/2000
Выходной формат          : Пользовательский кодировщик
Выбранный битрейт        : 1024 kBit/s
Качество                 : Высокий
Добавление ID3-тэга      : Нет
Утилита сжатия           : C:\Program Files (x86)\Exact Audio Copy\FLAC\FLAC.EXE
Дополнительные параметры : -8 -V -T "ARTIST=%a" -T "TITLE=%t" -T "ALBUM=%g" -T "DATE=%y" -T "TRACKNUMBER=%n" -T "GENRE=%m" -T "COMMENT=%e" %s -o %d
TOC извлечённого CD
     Трек |   Старт  | Длительность | Начальный сектор | Конечный сектор
    ---------------------------------------------------------------------
       1  |  0:00.00 |    4:48.41   |           0      |      21640
       2  |  4:48.41 |    6:46.71   |       21641      |      52161
       3  | 11:35.37 |    5:39.10   |       52162      |      77596
       4  | 17:14.47 |    5:41.34   |       77597      |     103205
       5  | 22:56.06 |    5:33.43   |      103206      |     128223
       6  | 28:29.49 |    3:51.24   |      128224      |     145572
       7  | 32:20.73 |    4:29.41   |      145573      |     165788
       8  | 36:50.39 |    4:05.04   |      165789      |     184167
       9  | 40:55.43 |    4:54.45   |      184168      |     206262
      10  | 45:50.13 |    5:28.05   |      206263      |     230867
      11  | 51:18.18 |    3:58.32   |      230868      |     248749
      12  | 55:16.50 |    5:01.54   |      248750      |     271378
      13  | 60:18.29 |    3:48.23   |      271379      |     288501
      14  | 64:06.52 |    5:16.38   |      288502      |     312239
Характеристики диапазона извлечения и сообщения об ошибках
Выбранный диапазон
     Имя файла D:\РАЗДАЧИ!!!!\VA - Electropolis Vol.2 - 2000\Various Artists - Electropolis Volume 2.wav
     Пиковый уровень 96.6 %
     Качество диапазона 100.0 %
     CRC теста 5C46E716
     CRC копии 5C46E716
     Копирование... OK
Ошибок не произошло
AccurateRip: сводка
Трек  1  нет в базе данных
Трек  2  нет в базе данных
Трек  3  нет в базе данных
Трек  4  нет в базе данных
Трек  5  нет в базе данных
Трек  6  нет в базе данных
Трек  7  нет в базе данных
Трек  8  нет в базе данных
Трек  9  нет в базе данных
Трек 10  нет в базе данных
Трек 11  нет в базе данных
Трек 12  нет в базе данных
Трек 13  нет в базе данных
Трек 14  нет в базе данных
Ни одного трека нет в базе AccurateRip
Конец отчёта
Код:
REM GENRE "EBM, Industrial"
REM DATE 2000
REM DISCID BF10430E
REM COMMENT "ExactAudioCopy v0.99pb5"
PERFORMER "Various Artists"
TITLE "Electropolis Volume 2"
FILE "Various Artists - Electropolis Volume 2.flac" WAVE
  TRACK 01 AUDIO
    TITLE "Things To Come (Make Love Not War Mix)"
    PERFORMER "Informatik"
    INDEX 01 00:00:00
  TRACK 02 AUDIO
    TITLE "Murderers Among Us"
    PERFORMER "Mentallo & The Fixer"
    INDEX 01 04:48:41
  TRACK 03 AUDIO
    TITLE "Static"
    PERFORMER "Numb"
    INDEX 01 11:35:37
  TRACK 04 AUDIO
    TITLE "Triumph Of My Will"
    PERFORMER "Ikon"
    INDEX 01 17:14:47
  TRACK 05 AUDIO
    TITLE "Near (Banilla Dream Mix)"
    PERFORMER "Apoptygma Berserk"
    INDEX 01 22:56:06
  TRACK 06 AUDIO
    TITLE "Order And Joy (Exclusive Mix)"
    PERFORMER "Crocodile Shop"
    INDEX 01 28:29:49
  TRACK 07 AUDIO
    TITLE "Martians On The Moon"
    PERFORMER "Funker Vogt"
    INDEX 01 32:20:73
  TRACK 08 AUDIO
    TITLE "Flucht (Front Line Assembly Remix)"
    PERFORMER "Wumpscut"
    INDEX 01 36:50:39
  TRACK 09 AUDIO
    TITLE "Eclipse"
    PERFORMER "Kevorkian Death Cycle"
    INDEX 01 40:55:43
  TRACK 10 AUDIO
    TITLE "Headhunter (Aghast View Remix)"
    PERFORMER "Front 242"
    INDEX 01 45:50:13
  TRACK 11 AUDIO
    TITLE "Masterslave (Wumpscut Remix)"
    PERFORMER "Front Line Assembly"
    INDEX 01 51:18:18
  TRACK 12 AUDIO
    TITLE "Learn To Live"
    PERFORMER "In Strict Confidence"
    INDEX 01 55:16:50
  TRACK 13 AUDIO
    TITLE "Temper Of Poseidon"
    PERFORMER "Project Pitchfork"
    INDEX 01 60:18:29
  TRACK 14 AUDIO
    TITLE "Now This Is Human"
    PERFORMER "Diary Of Dreams"
    INDEX 01 64:06:52
   
Код:
AUDIOCHECKER v2.0 beta (build 457) - by Dester - opdester@freemail.hu
~~~~~~~~~~~~~~~~~~~~~~~~~~~~~~~~~~
-=== DO NOT EDIT THIS FILE! ===-
Path: ...\VA - Electropolis Vol.2 - 2000
1 -=- Various Artists - Electropolis Volume 2.flac -=- CDDA (100%)
169708500
Правила, инструкции, FAQ!!!
Торрент  Добавлен [26 июн 2020, 17:00] Скачать торрент Магнет ссылка
Скачать торрент
[ Размер 14.56 КБ / Просмотров 3 ]

Статус
Проверен 
 
Размер  687.41 МБ
Приватный: Нет (DHT включён)
.torrent скачан  0
 


     Отправить личное сообщение
   
Страница 1 из 1
Показать сообщения за:  Поле сортировки  
Начать новую тему Ответить на тему


Сейчас этот форум просматривают: нет зарегистрированных пользователей и гости: 0


Вы не можете начинать темы
Вы не можете отвечать на сообщения
Вы не можете редактировать свои сообщения
Вы не можете удалять свои сообщения
Вы не можете добавлять вложения

Перейти:  
cron