Начать новую тему Ответить на тему
Статистика раздачи
Размер: 417.59 МБ | Добавлен: 26 июн 2020, 19:53 | Скачали: 0
Сидеров: 0  [0 байт/сек]    Личеров: 0  [0 байт/сек]
Пред. тема | След. тема 

Автор
Сообщение

СообщениеДобавлено: 26 июн 2020, 19:53 

Ответить с цитатой 

Cut.Rate.Box / Dataseed
Жанр: EBM, Industrial, Synth-pop
Страна-производитель диска: Germany
Год издания диска: 2001
Издатель (лейбл): Accession Records/EFA
Номер по каталогу: EFA 03635-2
Страна: USA
Аудио кодек: FLAC (*.flac)
Тип рипа: image+.cue
Битрейт аудио: lossless
Продолжительность: 1:00:11.20
Источник (релизер): CD из личной коллекции.
Наличие сканов в содержимом раздачи: да
Треклист:
01. Thin Ice 5:02
02. Ego 5:42
03. Synthetic 4:38
04. Brittle 4:35
05. Radical (Saint Blaze) 6:00
06. Zionsank 5:40
07. Enigma 6:50
08. Leave This World 6:00
09. Dataseed 8:13
10. Zionsank (Assemblage 23 Remix) 4:44
11. Restless (Torrent Vaccine Remix) 4:31
Код:
Exact Audio Copy V0.99 prebeta 5 from 4. May 2009
Отчёт EAC об извлечении, выполненном 8. декабря 2010, 20:08
Cut.Rate.Box / Dataseed
Дисковод: TSSTcorpCDDVDW TS-L632H   Adapter: 0  ID: 0
Режим чтения                 : Достоверность
Использование точного потока : Да
Отключение кэша аудио        : Да
Использование указателей C2  : Нет
Коррекция смещения при чтении                     : 6
Способность читать области Lead-in и Lead-out     : Нет
Заполнение пропущенных сэмплов тишиной            : Да
Удаление блоков с тишиной в начале и конце        : Нет
При вычислениях CRC использовались нулевые сэмплы : Да
Интерфейс                                         : Встроенный Win32-интерфейс для Win NT/2000
Выходной формат          : Пользовательский кодировщик
Выбранный битрейт        : 1024 kBit/s
Качество                 : Высокий
Добавление ID3-тэга      : Нет
Утилита сжатия           : C:\Program Files\Exact Audio Copy\FLAC\FLAC.EXE
Дополнительные параметры : -6 -V -T "ARTIST=%a" -T "TITLE=%t" -T "ALBUM=%g" -T "DATE=%y" -T "TRACKNUMBER=%n" -T "GENRE=%m" -T "COMMENT=%e" %s -o %d
TOC извлечённого CD
     Трек |   Старт  | Длительность | Начальный сектор | Конечный сектор
    ---------------------------------------------------------------------
       1  |  0:00.00 |    5:09.26   |           0      |      23200
       2  |  5:09.26 |    5:55.32   |       23201      |      49857
       3  | 11:04.58 |    4:45.30   |       49858      |      71262
       4  | 15:50.13 |    4:07.57   |       71263      |      89844
       5  | 19:57.70 |    5:54.48   |       89845      |     116442
       6  | 25:52.43 |    5:29.11   |      116443      |     141128
       7  | 31:21.54 |    6:47.56   |      141129      |     171709
       8  | 38:09.35 |    6:05.54   |      171710      |     199138
       9  | 44:15.14 |    6:48.51   |      199139      |     229789
      10  | 51:03.65 |    4:36.22   |      229790      |     250511
      11  | 55:40.12 |    4:31.08   |      250512      |     270844
Характеристики диапазона извлечения и сообщения об ошибках
Выбранный диапазон
     Имя файла C:\Users\Алексей\Desktop\iPOD\Cut.Rate.Box - Dataseed.wav
     Пиковый уровень 100.0 %
     Качество диапазона 100.0 %
     CRC теста CF11D834
     CRC копии CF11D834
     Копирование... OK
Ошибок не произошло
AccurateRip: сводка
Трек  1  точное извлечение (доверие 3)  [DBA6E93D]
Трек  2  точное извлечение (доверие 3)  [DFE7DA81]
Трек  3  точное извлечение (доверие 3)  [7FE09B49]
Трек  4  точное извлечение (доверие 3)  [E4F6B2E3]
Трек  5  точное извлечение (доверие 3)  [B7440915]
Трек  6  точное извлечение (доверие 3)  [632FEE6D]
Трек  7  точное извлечение (доверие 3)  [795EF9CA]
Трек  8  точное извлечение (доверие 3)  [5F2A0E7A]
Трек  9  точное извлечение (доверие 2)  [917FDE97]
Трек 10  точное извлечение (доверие 2)  [E4909558]
Трек 11  нет в базе данных
10 трек(и) скопированы точно
 1 трек(и) не содержатся в базе AccurateRip
Некоторые треки не прошли проверку на точность
Конец отчёта
Код:
REM GENRE Industrial
REM DATE 2001
REM DISCID 9C0E1B0B
REM COMMENT "ExactAudioCopy v0.99pb5"
PERFORMER "Cut.Rate.Box"
TITLE "Dataseed"
FILE "Cut.Rate.Box - Dataseed.flac" WAVE
  TRACK 01 AUDIO
    TITLE "Thin Ice"
    PERFORMER "Cut.Rate.Box"
    INDEX 01 00:00:00
  TRACK 02 AUDIO
    TITLE "Ego"
    PERFORMER "Cut.Rate.Box"
    INDEX 01 05:09:26
  TRACK 03 AUDIO
    TITLE "Synthetic"
    PERFORMER "Cut.Rate.Box"
    INDEX 01 11:04:58
  TRACK 04 AUDIO
    TITLE "Brittle"
    PERFORMER "Cut.Rate.Box"
    INDEX 01 15:50:13
  TRACK 05 AUDIO
    TITLE "Radical (Saint Blaze)"
    PERFORMER "Cut.Rate.Box"
    INDEX 01 19:57:70
  TRACK 06 AUDIO
    TITLE "Zionsank"
    PERFORMER "Cut.Rate.Box"
    INDEX 01 25:52:43
  TRACK 07 AUDIO
    TITLE "Enigma"
    PERFORMER "Cut.Rate.Box"
    INDEX 01 31:21:54
  TRACK 08 AUDIO
    TITLE "Leave This World"
    PERFORMER "Cut.Rate.Box"
    INDEX 01 38:09:35
  TRACK 09 AUDIO
    TITLE "Dataseed"
    PERFORMER "Cut.Rate.Box"
    INDEX 01 44:15:14
  TRACK 10 AUDIO
    TITLE "Zionsank (Assemblage 23 Remix)"
    PERFORMER "Cut.Rate.Box"
    INDEX 01 51:03:65
  TRACK 11 AUDIO
    TITLE "Restless (Torrent Vaccine Remix)"
    PERFORMER "Cut.Rate.Box"
    INDEX 01 55:40:12
Код:
[url=https://fastpic.ru/view/13/2010/1210/bdf1db6a5e3955341aafd5b437058f80.jpg.html][img]http://i13.fastpic.ru/thumb/2010/1210/80/bdf1db6a5e3955341aafd5b437058f80.jpeg[/img][/url]
ОГРОМНАЯ БЛАГОДАРНОСТЬ НАШЕМУ КОЛЛЕГЕ KERGARN`у ЗА СКАНЫ!!!
Правила, инструкции, FAQ!!!
Торрент  Добавлен [26 июн 2020, 19:53] Скачать торрент Магнет ссылка
Скачать торрент
[ Размер 17.5 КБ / Просмотров 7 ]

Статус
Проверен 
 
Размер  417.59 МБ
Приватный: Нет (DHT включён)
.torrent скачан  0
 


     Отправить личное сообщение
   
Страница 1 из 1
Показать сообщения за:  Поле сортировки  
Начать новую тему Ответить на тему


Сейчас этот форум просматривают: нет зарегистрированных пользователей и гости: 0


Вы не можете начинать темы
Вы не можете отвечать на сообщения
Вы не можете редактировать свои сообщения
Вы не можете удалять свои сообщения
Вы не можете добавлять вложения

Перейти:  
cron