Начать новую тему Ответить на тему
Статистика раздачи
Размер: 1.4 ГБ | Добавлен: 26 июн 2020, 16:53 | Скачали: 0
Сидеров: 0  [0 байт/сек]    Личеров: 0  [0 байт/сек]
Пред. тема | След. тема 

Автор
Сообщение

СообщениеДобавлено: 26 июн 2020, 16:53 

Ответить с цитатой 

Various Artists
Born / Evolve / Progress 1, 2, 3

VA - Born / Evolve / Progress 1, 2, 3 [Коллекция: 3 релиза] (2005-2011) MP3 (tracks) 320 kbps
Жанр: EBM, Industrial, Synth-pop, Noise, Electro
Носитель: CD
Лейбл: Progress Productions
Страна: Швеция
Год издания: 2005 - 2011
Тип рипа: image+.cue
Аудиокодек: FLAC (*.flac)
Битрейт: lossless
Наличие сканов в содержимом раздачи: нет
Источник: SoulSeek
Общая продолжительность звучания: 03:23:13
Жанр: EBM, Industrial, Synth-pop
Треклист:
01. Iambia - Anasynthesis [4:52]
02. Necro Facility - Nursed [4:40]
03. Red Cell - Related Skin [5:07]
04. 8kHz Mono - Weep4me (Aslan Faction Cover) [4:56]
05. Mr Jones Machine - Hypersleep (LV426 Edit) [4:46]
06. Sturm Café Stiefelfabrik [3:56]
07. Hype - Your Kind [4:45]
08. Cryo - Want It [4:35]
09. Red Cell - Naked [2:56]
10. 8kHz Mono - One (Mark II) [5:45]
11. Iambia - Sederial Spheres (Version MK1) [4:48]
12. Necro Facility - Deathrow (Plague Remix) [5:02]
13. Cryo - Vengeance [4:03]
14. Hype - Winterday (2005A) [3:53]
15. Mr Jones Machine - I'm Your Enemy [5:10]
16. Sturm Café - Schweiss, Bier Und Stahl [3:35]
Discogs
Код:
Exact Audio Copy V1.0 beta 3 from 29. August 2011
EAC extraction logfile from 28. October 2011, 23:47
Various / Born / Evolve / Progress
Used drive  : PLEXTOR BDDVDR PX-B320SA   Adapter: 1  ID: 1
Read mode               : Secure
Utilize accurate stream : Yes
Defeat audio cache      : Yes
Make use of C2 pointers : No
Read offset correction                      : 6
Overread into Lead-In and Lead-Out          : No
Fill up missing offset samples with silence : Yes
Delete leading and trailing silent blocks   : No
Null samples used in CRC calculations       : Yes
Used interface                              : Native Win32 interface for Win NT & 2000
Used output format              : User Defined Encoder
Selected bitrate                : 128 kBit/s
Quality                         : High
Add ID3 tag                     : No
Command line compressor         : C:\Program Files\FLAC\flac.exe
Additional command line options : -V -8 -T "Date=%year%" -T "Genre=%genre%" %source%
TOC of the extracted CD
     Track |   Start  |  Length  | Start sector | End sector
    ---------------------------------------------------------
        1  |  0:00.00 |  4:52.48 |         0    |    21947
        2  |  4:52.48 |  4:39.46 |     21948    |    42918
        3  |  9:32.19 |  5:07.53 |     42919    |    65996
        4  | 14:39.72 |  4:55.47 |     65997    |    88168
        5  | 19:35.44 |  4:46.22 |     88169    |   109640
        6  | 24:21.66 |  3:55.13 |    109641    |   127278
        7  | 28:17.04 |  4:45.27 |    127279    |   148680
        8  | 33:02.31 |  4:34.65 |    148681    |   169295
        9  | 37:37.21 |  2:56.06 |    169296    |   182501
       10  | 40:33.27 |  5:45.14 |    182502    |   208390
       11  | 46:18.41 |  4:47.70 |    208391    |   229985
       12  | 51:06.36 |  5:02.15 |    229986    |   252650
       13  | 56:08.51 |  4:02.53 |    252651    |   270853
       14  | 60:11.29 |  3:52.56 |    270854    |   288309
       15  | 64:04.10 |  5:10.61 |    288310    |   311620
       16  | 69:14.71 |  3:34.36 |    311621    |   327706
Range status and errors
Selected range
     Filename D:\Various - Born_Evolve_Progress (2005)\Various - Born_Evolve_Progress.wav
     Peak level 100.0 %
     Extraction speed 8.7 X
     Range quality 100.0 %
     Test CRC C88DC78F
     Copy CRC C88DC78F
     Copy OK
No errors occurred
AccurateRip summary
Track  1  accurately ripped (confidence 3)  [8830404C]  (AR v1)
Track  2  accurately ripped (confidence 3)  [C411103E]  (AR v1)
Track  3  accurately ripped (confidence 3)  [8A4AC881]  (AR v1)
Track  4  accurately ripped (confidence 3)  [4C7CA534]  (AR v1)
Track  5  accurately ripped (confidence 3)  [BF769046]  (AR v1)
Track  6  accurately ripped (confidence 3)  [43CF6C35]  (AR v1)
Track  7  accurately ripped (confidence 3)  [ACAE98A9]  (AR v1)
Track  8  accurately ripped (confidence 3)  [06885517]  (AR v1)
Track  9  accurately ripped (confidence 3)  [A5C04379]  (AR v1)
Track 10  accurately ripped (confidence 3)  [5229493E]  (AR v1)
Track 11  accurately ripped (confidence 3)  [ECDD341E]  (AR v1)
Track 12  accurately ripped (confidence 3)  [895C0140]  (AR v1)
Track 13  accurately ripped (confidence 3)  [F8EA05E7]  (AR v1)
Track 14  accurately ripped (confidence 3)  [7E9B14D8]  (AR v1)
Track 15  accurately ripped (confidence 3)  [D1F3A261]  (AR v1)
Track 16  accurately ripped (confidence 3)  [31BD339F]  (AR v1)
All tracks accurately ripped
End of status report
==== Log checksum 6A1B6A488359F7072C317614C542AA8C36B884543840A0887F1727A21F5CFE02 ====
Код:
REM GENRE Electronic
REM DATE 2005
REM DISCID 01111110
REM COMMENT "ExactAudioCopy v1.0b3"
PERFORMER "Various"
TITLE "Born / Evolve / Progress"
FILE "Various - Born_Evolve_Progress.flac" WAVE
  TRACK 01 AUDIO
    TITLE "Anasynthesis"
    PERFORMER "Iambia"
    FLAGS DCP
    INDEX 01 00:00:00
  TRACK 02 AUDIO
    TITLE "Nursed"
    PERFORMER "Necro Facility"
    FLAGS DCP
    INDEX 00 04:50:48
    INDEX 01 04:52:48
  TRACK 03 AUDIO
    TITLE "Related Skin"
    PERFORMER "Red Cell"
    FLAGS DCP
    INDEX 00 09:30:19
    INDEX 01 09:32:19
  TRACK 04 AUDIO
    TITLE "Weep4me (Aslan Faction Cover)"
    PERFORMER "8khz Mono"
    FLAGS DCP
    INDEX 00 14:37:72
    INDEX 01 14:39:72
  TRACK 05 AUDIO
    TITLE "Hypersleep (LV426 Edit)"
    PERFORMER "Mr Jones Machine"
    FLAGS DCP
    INDEX 00 19:33:44
    INDEX 01 19:35:44
  TRACK 06 AUDIO
    TITLE "Stiefelfabrik"
    PERFORMER "Sturm Cafe"
    FLAGS DCP
    INDEX 00 24:19:66
    INDEX 01 24:21:66
  TRACK 07 AUDIO
    TITLE "Your Kind"
    PERFORMER "Hype"
    FLAGS DCP
    INDEX 00 28:15:04
    INDEX 01 28:17:04
  TRACK 08 AUDIO
    TITLE "Want It"
    PERFORMER "Cryo"
    FLAGS DCP
    INDEX 00 33:00:31
    INDEX 01 33:02:31
  TRACK 09 AUDIO
    TITLE "Naked"
    PERFORMER "Red Cell"
    FLAGS DCP
    INDEX 00 37:35:21
    INDEX 01 37:37:21
  TRACK 10 AUDIO
    TITLE "One (Mark II)"
    PERFORMER "8khz Mono"
    FLAGS DCP
    INDEX 00 40:31:27
    INDEX 01 40:33:27
  TRACK 11 AUDIO
    TITLE "Sederial Spheres (Version MK1)"
    PERFORMER "Iambia"
    FLAGS DCP
    INDEX 00 46:16:41
    INDEX 01 46:18:41
  TRACK 12 AUDIO
    TITLE "Deathrow (Plague Remix)"
    PERFORMER "Necro Facility"
    FLAGS DCP
    INDEX 00 51:04:36
    INDEX 01 51:06:36
  TRACK 13 AUDIO
    TITLE "Vengeance"
    PERFORMER "Cryo"
    FLAGS DCP
    INDEX 00 56:06:52
    INDEX 01 56:08:51
  TRACK 14 AUDIO
    TITLE "Winterday (2005A)"
    PERFORMER "Hype"
    FLAGS DCP
    INDEX 00 60:09:29
    INDEX 01 60:11:29
  TRACK 15 AUDIO
    TITLE "I'm Your Enemy"
    PERFORMER "Mr Jones Machine"
    FLAGS DCP
    INDEX 00 64:02:10
    INDEX 01 64:04:10
  TRACK 16 AUDIO
    TITLE "Schweiss, Bier und Stahl"
    PERFORMER "Sturm Cafe"
    FLAGS DCP
    INDEX 00 69:12:71
    INDEX 01 69:14:71
Код:
[CUETools log; Date: 12.06.2015 9:00:42; Version: 2.1.2a]
[CTDB TOCID: aAdMI6x3E282WpqLSXXIekIHI3U-] found.
        [ CTDBID ] Status
        [48d2af86] (3/4) Accurately ripped
        [8955ac4b] (1/4) No match
[AccurateRip ID: 002b6d00-0206692f-01111110] found.
Track   [ CRC    ] Status
 01     [8830404c] (3/5) Accurately ripped
 02     [c411103e] (3/5) Accurately ripped
 03     [8a4ac881] (3/5) Accurately ripped
 04     [4c7ca534] (3/5) Accurately ripped
 05     [bf769046] (3/5) Accurately ripped
 06     [43cf6c35] (3/5) Accurately ripped
 07     [acae98a9] (3/5) Accurately ripped
 08     [06885517] (3/5) Accurately ripped
 09     [a5c04379] (3/5) Accurately ripped
 10     [5229493e] (3/5) Accurately ripped
 11     [ecdd341e] (3/5) Accurately ripped
 12     [895c0140] (3/5) Accurately ripped
 13     [f8ea05e7] (3/5) Accurately ripped
 14     [7e9b14d8] (3/5) Accurately ripped
 15     [d1f3a261] (3/5) Accurately ripped
 16     [31bd339f] (3/5) Accurately ripped
AccurateRip v2:
 01     [27e5aaad] (2/5) Accurately ripped
 02     [42ad6a9c] (2/5) Accurately ripped
 03     [68cdb975] (2/5) Accurately ripped
 04     [1e307635] (2/5) Accurately ripped
 05     [82acb2f4] (2/5) Accurately ripped
 06     [223e8b87] (2/5) Accurately ripped
 07     [80f1317f] (2/5) Accurately ripped
 08     [469a96eb] (2/5) Accurately ripped
 09     [25bf8baf] (2/5) Accurately ripped
 10     [7c1513e8] (2/5) Accurately ripped
 11     [cdccfc3d] (2/5) Accurately ripped
 12     [a7f3a391] (2/5) Accurately ripped
 13     [3de91b9d] (2/5) Accurately ripped
 14     [a0e0c4d9] (2/5) Accurately ripped
 15     [eba68f5b] (2/5) Accurately ripped
 16     [3c82b6d2] (2/5) Accurately ripped
Track Peak [ CRC32  ] [W/O NULL] [  LOG   ]
 --  100,0 [C88DC78F] [624B8244]   CRC32
 01   97,7 [ADE75E50] [C02B5B68]
 02   97,7 [938DEECC] [F30C6D19]
 03   97,7 [C91149C4] [A5C2F140]
 04   97,7 [7B56DC06] [A5CC2BE4]
 05   97,7 [13891641] [F0581F29]
 06   97,7 [F3C42DB5] [312B1609]
 07   99,7 [6A3A4B9C] [88C0AC40]
 08  100,0 [7098C40A] [EFB55B19]
 09   97,7 [94C50421] [DEACC1B4]
 10   97,7 [DC905F74] [E5064E98]
 11   97,7 [860CEF61] [35CC0A07]
 12   99,3 [C5798FD4] [150CF04F]
 13   97,7 [3447F995] [216764CF]
 14   97,7 [65FC54C8] [444E2A35]
 15   99,7 [7BADDEB7] [88ED1E75]
 16   99,7 [BA315801] [15D06F74]
#777Жанр: EBM, Noise, Synth-pop, Industrial
Треклист:
01. Cryo - Freedom [4:31]
02. Terror Punk Syndicate - Dysmorphia (Epicentre Version) [4:24]
03. Mommy Hurt My Head - Nothing Zero Option (After The Pills) [3:57]
04. Necro Facility - Tuxedo [4:06]
05. Red Cell - Lust [3:56]
06. Mr. Jones Machine - Vilda Drömmar [4:31]
07. Hype - Love-O-Lution [4:25]
08. System - No Man [5:02]
09. 8kHz Mono - Crash Course [4:49]
10. Iambia - Program K [5:28]
11. Cryo - Rage [4:37]
12. Terror Punk Syndicate - Wish I Was Retarded [4:36]
13. Sturm Café - Weltliches Leben [3:15]
14. Necro Facility - Dope [3:30]
15. Kopfer Kat - Spike [3:37]
Discogs
Код:
Exact Audio Copy V1.0 beta 3 from 29. August 2011
EAC extraction logfile from 29. October 2011, 20:26
Various / Born / Evolve / Progress // 2
Used drive  : PLEXTOR BDDVDR PX-B320SA   Adapter: 1  ID: 1
Read mode               : Secure
Utilize accurate stream : Yes
Defeat audio cache      : Yes
Make use of C2 pointers : No
Read offset correction                      : 6
Overread into Lead-In and Lead-Out          : No
Fill up missing offset samples with silence : Yes
Delete leading and trailing silent blocks   : No
Null samples used in CRC calculations       : Yes
Used interface                              : Native Win32 interface for Win NT & 2000
Used output format              : User Defined Encoder
Selected bitrate                : 128 kBit/s
Quality                         : High
Add ID3 tag                     : No
Command line compressor         : C:\Program Files\FLAC\flac.exe
Additional command line options : -V -8 -T "Date=%year%" -T "Genre=%genre%" %source%
TOC of the extracted CD
     Track |   Start  |  Length  | Start sector | End sector
    ---------------------------------------------------------
        1  |  0:00.00 |  4:31.64 |         0    |    20388
        2  |  4:31.64 |  4:23.66 |     20389    |    40179
        3  |  8:55.55 |  3:56.22 |     40180    |    57901
        4  | 12:52.02 |  4:06.27 |     57902    |    76378
        5  | 16:58.29 |  3:55.65 |     76379    |    94068
        6  | 20:54.19 |  4:31.31 |     94069    |   114424
        7  | 25:25.50 |  4:25.18 |    114425    |   134317
        8  | 29:50.68 |  5:01.17 |    134318    |   156909
        9  | 34:52.10 |  4:49.46 |    156910    |   178630
       10  | 39:41.56 |  5:27.52 |    178631    |   203207
       11  | 45:09.33 |  4:37.29 |    203208    |   224011
       12  | 49:46.62 |  4:35.72 |    224012    |   244708
       13  | 54:22.59 |  3:15.15 |    244709    |   259348
       14  | 57:37.74 |  3:29.10 |    259349    |   275033
       15  | 61:07.09 |  3:36.67 |    275034    |   291300
Range status and errors
Selected range
     Filename D:\Various - Born_Evolve_Progress__2 (2007)\Various - Born_Evolve_Progress__2.wav
     Peak level 100.0 %
     Extraction speed 8.1 X
     Range quality 100.0 %
     Test CRC 252D7A17
     Copy CRC 252D7A17
     Copy OK
No errors occurred
AccurateRip summary
Track  1  accurately ripped (confidence 1)  [09726EC9]  (AR v1)
Track  2  accurately ripped (confidence 1)  [D914CBB2]  (AR v1)
Track  3  accurately ripped (confidence 1)  [77D08917]  (AR v1)
Track  4  accurately ripped (confidence 1)  [4B616546]  (AR v1)
Track  5  accurately ripped (confidence 1)  [B6DBAB5C]  (AR v1)
Track  6  accurately ripped (confidence 1)  [2E2A21EE]  (AR v1)
Track  7  accurately ripped (confidence 1)  [4CCCA431]  (AR v1)
Track  8  accurately ripped (confidence 1)  [02E37326]  (AR v1)
Track  9  accurately ripped (confidence 1)  [C18EB7E3]  (AR v1)
Track 10  accurately ripped (confidence 1)  [577FB0C3]  (AR v1)
Track 11  accurately ripped (confidence 1)  [F6EEAE4C]  (AR v1)
Track 12  accurately ripped (confidence 1)  [3E960610]  (AR v1)
Track 13  accurately ripped (confidence 1)  [1D3230E9]  (AR v1)
Track 14  accurately ripped (confidence 1)  [47345947]  (AR v1)
Track 15  accurately ripped (confidence 1)  [1470D4C9]  (AR v1)
All tracks accurately ripped
End of status report
==== Log checksum 6A6E5C26CCCAF02DCAE51CB80A003FD0B68FA2988D99C877A84FB2A96A51B200 ====
Код:
REM GENRE Electronic
REM DATE 2007
REM DISCID E30F2C0F
REM COMMENT "ExactAudioCopy v1.0b3"
PERFORMER "Various"
TITLE "Born / Evolve / Progress // 2"
FILE "Various - Born_Evolve_Progress__2.flac" WAVE
  TRACK 01 AUDIO
    TITLE "Freedom"
    PERFORMER "Cryo"
    INDEX 01 00:00:00
  TRACK 02 AUDIO
    TITLE "Dysmorphia (Epicentre Version)"
    PERFORMER "Terror Punk Syndicate"
    INDEX 00 04:29:64
    INDEX 01 04:31:64
  TRACK 03 AUDIO
    TITLE "Nothing Zero Option (After The Pills)"
    PERFORMER "Mommy Hurt My Head"
    INDEX 00 08:53:55
    INDEX 01 08:55:55
  TRACK 04 AUDIO
    TITLE "Tuxedo"
    PERFORMER "Necro Facility"
    INDEX 00 12:50:02
    INDEX 01 12:52:02
  TRACK 05 AUDIO
    TITLE "Lust"
    PERFORMER "Red Cell"
    INDEX 00 16:56:29
    INDEX 01 16:58:29
  TRACK 06 AUDIO
    TITLE "Vilda Drommar"
    PERFORMER "Mr. Jones Machine"
    INDEX 00 20:52:19
    INDEX 01 20:54:19
  TRACK 07 AUDIO
    TITLE "Love-o-lution"
    PERFORMER "Hype"
    INDEX 00 25:23:50
    INDEX 01 25:25:50
  TRACK 08 AUDIO
    TITLE "No Man"
    PERFORMER "System"
    INDEX 00 29:48:68
    INDEX 01 29:50:68
  TRACK 09 AUDIO
    TITLE "Crash Course"
    PERFORMER "8kHz Mono"
    INDEX 00 34:50:10
    INDEX 01 34:52:10
  TRACK 10 AUDIO
    TITLE "Program K"
    PERFORMER "Iambia"
    INDEX 00 39:39:56
    INDEX 01 39:41:56
  TRACK 11 AUDIO
    TITLE "Rage"
    PERFORMER "Cryo"
    INDEX 00 45:07:33
    INDEX 01 45:09:33
  TRACK 12 AUDIO
    TITLE "Wish I Was Retarded"
    PERFORMER "Terror Punk Syndicate"
    INDEX 00 49:44:62
    INDEX 01 49:46:62
  TRACK 13 AUDIO
    TITLE "Weltliches Leben"
    PERFORMER "Sturm Cafe"
    INDEX 00 54:20:59
    INDEX 01 54:22:59
  TRACK 14 AUDIO
    TITLE "Dope"
    PERFORMER "Necro Facility"
    INDEX 00 57:35:74
    INDEX 01 57:37:74
  TRACK 15 AUDIO
    TITLE "Spike"
    PERFORMER "Kopper Kat"
    INDEX 00 61:05:09
    INDEX 01 61:07:09
Код:
[CUETools log; Date: 11.06.2015 20:19:58; Version: 2.1.2a]
[CTDB TOCID: SWcYgzz4jLn3_.ZcKah62IuPZlI-] found.
        [ CTDBID ] Status
        [f7b242bc] (2/2) Accurately ripped
[AccurateRip ID: 00242d00-019aff4c-e30f2c0f] found.
Track   [ CRC    ] Status
 01     [09726ec9] (0/2) No match but offset
 02     [d914cbb2] (0/2) No match but offset
 03     [77d08917] (0/2) No match but offset
 04     [4b616546] (0/2) No match but offset
 05     [b6dbab5c] (0/2) No match but offset
 06     [2e2a21ee] (0/2) No match but offset
 07     [4ccca431] (0/2) No match but offset
 08     [02e37326] (0/2) No match but offset
 09     [c18eb7e3] (0/2) No match but offset
 10     [577fb0c3] (0/2) No match but offset
 11     [f6eeae4c] (0/2) No match but offset
 12     [3e960610] (0/2) No match but offset
 13     [1d3230e9] (0/2) No match but offset
 14     [47345947] (0/2) No match but offset
 15     [1470d4c9] (0/2) No match but offset
AccurateRip v2:
 01     [4c4de73f] (2/2) Accurately ripped
 02     [ed859cf3] (2/2) Accurately ripped
 03     [168bd3eb] (2/2) Accurately ripped
 04     [86dfb032] (2/2) Accurately ripped
 05     [3c82e117] (2/2) Accurately ripped
 06     [c209fe93] (2/2) Accurately ripped
 07     [0d96fdcc] (2/2) Accurately ripped
 08     [bc049855] (2/2) Accurately ripped
 09     [9d075f62] (2/2) Accurately ripped
 10     [27e74e14] (2/2) Accurately ripped
 11     [041782e6] (2/2) Accurately ripped
 12     [b3e78d03] (2/2) Accurately ripped
 13     [974d979d] (2/2) Accurately ripped
 14     [3e0c491e] (2/2) Accurately ripped
 15     [3538476c] (2/2) Accurately ripped
Track Peak [ CRC32  ] [W/O NULL] [  LOG   ]
 --  100,0 [252D7A17] [AD9A68A6]   CRC32
 01   97,7 [F7FC8B0F] [0228DA1B]
 02   97,7 [DA0B9F5A] [3225E46F]
 03   97,7 [AD8CBCF4] [24E21276]
 04   97,7 [E8880DCA] [460F0338]
 05  100,0 [43DDF2F6] [3455A6C0]
 06   97,7 [08340826] [E64A81C7]
 07   97,7 [A1447811] [42F57681]
 08   97,7 [9FCFA7FD] [AC8D4B59]
 09   97,7 [77729C37] [95C29E7B]
 10   97,7 [D9ECBDDE] [7DBB94DE]
 11   97,7 [CE0FCCE8] [8A4CAA58]
 12   97,7 [9193C052] [B6B4EB1B]
 13   97,7 [6CC61B2B] [C2A52947]
 14   97,7 [BB620A72] [7C03D778]
 15   91,9 [3074216B] [00875194]
#777Жанр: EBM, Electro, Synth-pop, Industrial
Треклист:
01. Henric De La Cour - Dogs [3:11]
02. Kite - Ways To Dance (Leaether Strip Remix) [5:10]
03. Red Cell - Lost [4:59]
04. Covenant Feat. Necro Facility - Lightbringer (Speedrun II) [4:30]
05. Code 64 - Deviant (SPARK! Remix) [5:42]
06. Necro Facility - Do You Feel The Same (Henrik Bäckström Remix) [5:03]
07. Cryo - Change (90ies Mix) [4:47]
08. Spark! - Popkomplex [4:15]
09. Titans - Dried Out [5:41]
10. Mr Jones Machine Feat. Susie - De Månbleka Tingen (Beanbag Remix By Cryo) [5:03]
11. System - Inheritance (SYSTEMatic Mix) [5:08]
12. SoundSequence - Grim Reaper (2002) [7:55]
13. Mommy Hurt My Head - Flawless (pAn Alt. Version Mix) [4:18]
Discogs
Код:
Exact Audio Copy V1.0 beta 3 from 29. August 2011
EAC extraction logfile from 29. October 2011, 20:58
Various / Born///Evolve///Progress///3
Used drive  : PLEXTOR BDDVDR PX-B320SA   Adapter: 1  ID: 1
Read mode               : Secure
Utilize accurate stream : Yes
Defeat audio cache      : Yes
Make use of C2 pointers : No
Read offset correction                      : 6
Overread into Lead-In and Lead-Out          : No
Fill up missing offset samples with silence : Yes
Delete leading and trailing silent blocks   : No
Null samples used in CRC calculations       : Yes
Used interface                              : Native Win32 interface for Win NT & 2000
Used output format              : User Defined Encoder
Selected bitrate                : 128 kBit/s
Quality                         : High
Add ID3 tag                     : No
Command line compressor         : C:\Program Files\FLAC\flac.exe
Additional command line options : -V -8 -T "Date=%year%" -T "Genre=%genre%" %source%
TOC of the extracted CD
     Track |   Start  |  Length  | Start sector | End sector
    ---------------------------------------------------------
        1  |  0:00.00 |  3:10.63 |         0    |    14312
        2  |  3:10.63 |  5:09.63 |     14313    |    37550
        3  |  8:20.51 |  4:59.30 |     37551    |    60005
        4  | 13:20.06 |  4:29.66 |     60006    |    80246
        5  | 17:49.72 |  5:41.55 |     80247    |   105876
        6  | 23:31.52 |  5:02.70 |    105877    |   128596
        7  | 28:34.47 |  4:46.53 |    128597    |   150099
        8  | 33:21.25 |  4:15.00 |    150100    |   169224
        9  | 37:36.25 |  5:41.00 |    169225    |   194799
       10  | 43:17.25 |  5:02.38 |    194800    |   217487
       11  | 48:19.63 |  5:07.37 |    217488    |   240549
       12  | 53:27.25 |  7:54.55 |    240550    |   276154
       13  | 61:22.05 |  4:18.00 |    276155    |   295504
Range status and errors
Selected range
     Filename D:\Various - Born_Evolve_Progress__3 (2011)\Various - Born_Evolve_Progress__3.wav
     Peak level 97.7 %
     Extraction speed 8.1 X
     Range quality 100.0 %
     Test CRC 045D00E4
     Copy CRC 045D00E4
     Copy OK
No errors occurred
AccurateRip summary
Track  1  not present in database
Track  2  not present in database
Track  3  not present in database
Track  4  not present in database
Track  5  not present in database
Track  6  not present in database
Track  7  not present in database
Track  8  not present in database
Track  9  not present in database
Track 10  not present in database
Track 11  not present in database
Track 12  not present in database
Track 13  not present in database
None of the tracks are present in the AccurateRip database
End of status report
==== Log checksum 6750AA895DBA9D920F104A3936165CC0815686DA56FEFB32E63FC10E88477AC9 ====
Код:
REM GENRE Electronic
REM DATE 2011
REM DISCID 9E0F640D
REM COMMENT "ExactAudioCopy v1.0b3"
PERFORMER "Various"
TITLE "Born///Evolve///Progress///3"
FILE "Various - Born_Evolve_Progress__3.flac" WAVE
  TRACK 01 AUDIO
    TITLE "Dogs"
    PERFORMER "Henric de la Cour"
    ISRC SI1FX1100901
    INDEX 01 00:00:00
  TRACK 02 AUDIO
    TITLE "Ways To Dance (Leaether Strip Remix)"
    PERFORMER "Kite"
    ISRC SI1FX1100902
    INDEX 01 03:10:63
  TRACK 03 AUDIO
    TITLE "Lost"
    PERFORMER "Red Cell"
    ISRC SI1FX1100903
    INDEX 01 08:20:51
  TRACK 04 AUDIO
    TITLE "Lightbringer (Speedrun II)"
    PERFORMER "Covenant feat. Necro Facility"
    ISRC SI1FX1100904
    INDEX 01 13:20:06
  TRACK 05 AUDIO
    TITLE "Deviant (SPARK! Remix)"
    PERFORMER "Code 64"
    ISRC SI1FX1100905
    INDEX 01 17:49:72
  TRACK 06 AUDIO
    TITLE "Do You Feel The Same (Henrik Backstrom Remix)"
    PERFORMER "Necro Facility"
    ISRC SI1FX1100906
    INDEX 01 23:31:52
  TRACK 07 AUDIO
    TITLE "Change (90ies Mix)"
    PERFORMER "Cryo"
    ISRC SI1FX1100907
    INDEX 01 28:34:47
  TRACK 08 AUDIO
    TITLE "Popkomplex"
    PERFORMER "Spark!"
    ISRC SI1FX1100908
    INDEX 01 33:21:25
  TRACK 09 AUDIO
    TITLE "Dried Out"
    PERFORMER "Titans"
    ISRC SI1FX1100909
    INDEX 01 37:36:25
  TRACK 10 AUDIO
    TITLE "De Manbleka Tingen (Beanbag Remix By Cryo)"
    PERFORMER "Mr Jones Machine feat. Susie"
    ISRC SI1FX1100910
    INDEX 01 43:17:25
  TRACK 11 AUDIO
    TITLE "Inheritance (SYSTEMatic Mix)"
    PERFORMER "System"
    ISRC SI1FX1100801
    INDEX 01 48:19:63
  TRACK 12 AUDIO
    TITLE "Grim Reaper (2002)"
    PERFORMER "SoundSequence"
    ISRC SI1FX1100801
    INDEX 01 53:27:25
  TRACK 13 AUDIO
    TITLE "Flawless (pAn Alt. Version Mix)"
    PERFORMER "Mommy Hurt My Head"
    ISRC SI1FX1100911
    INDEX 01 61:22:05
Код:
[CUETools log; Date: 11.06.2015 16:51:19; Version: 2.1.2a]
[CTDB TOCID: jeP_drglhi2TVzhrSwmnNjqEp1c-] found.
        [ CTDBID ] Status
        [b976663d] (1/1) Accurately ripped
[AccurateRip ID: 001e10ee-01311cd2-9e0f640d] found.
Track   [ CRC    ] Status
 01     [27841fac] (0/3) No match but offset
 02     [dc1f21b0] (0/3) No match but offset
 03     [506362ba] (0/3) No match but offset
 04     [bbf2e71d] (0/3) No match but offset
 05     [8c630829] (0/3) No match but offset
 06     [637faf32] (0/3) No match but offset
 07     [873fffa6] (0/3) No match but offset
 08     [ce575ffe] (0/3) No match but offset
 09     [e8952e49] (0/3) No match but offset
 10     [1ce91cab] (0/3) No match but offset
 11     [bf5176a8] (0/3) No match but offset
 12     [5b8525bf] (0/3) No match but offset
 13     [3b5c88d1] (0/3) No match but offset
AccurateRip v2:
 01     [4315f70b] (3/3) Accurately ripped
 02     [deeb4909] (3/3) Accurately ripped
 03     [7ec973c0] (3/3) Accurately ripped
 04     [bdeba8bb] (3/3) Accurately ripped
 05     [5988381f] (3/3) Accurately ripped
 06     [930508c1] (3/3) Accurately ripped
 07     [b7d4c1df] (3/3) Accurately ripped
 08     [d9d3c0fb] (3/3) Accurately ripped
 09     [475917fb] (3/3) Accurately ripped
 10     [be3dd566] (3/3) Accurately ripped
 11     [7b26ae93] (3/3) Accurately ripped
 12     [c0492b79] (3/3) Accurately ripped
 13     [9f55cdf9] (3/3) Accurately ripped
Track Peak [ CRC32  ] [W/O NULL] [  LOG   ]
 --   97,7 [045D00E4] [5051A811]   CRC32
 01   97,7 [CB4C74D8] [EE7D9D24]
 02   97,7 [162FEE68] [7711D709]
 03   97,7 [571C035C] [6FA52938]
 04   97,7 [27C41822] [867EB114]
 05   97,7 [C610DD5C] [7DF8A9BE]
 06   97,7 [38179612] [E5721CA6]
 07   97,7 [F5F573AE] [466F6A9F]
 08   97,7 [04403097] [C065E8E0]
 09   97,7 [FF114394] [BD825331]
 10   97,7 [032C9C5A] [58B849DB]
 11   97,7 [83579557] [843E8D45]
 12   97,7 [4560E30C] [5BA9BC46]
 13   97,7 [09B29477] [7BF53D9C]
Правила, инструкции, FAQ!!!
Торрент  Добавлен [26 июн 2020, 16:53] Скачать торрент Магнет ссылка
Скачать торрент
[ Размер 16.11 КБ / Просмотров 4 ]

Статус
Проверен 
 
Размер  1.4 ГБ
Приватный: Нет (DHT включён)
.torrent скачан  0
 


     Отправить личное сообщение
   
Страница 1 из 1
Показать сообщения за:  Поле сортировки  
Начать новую тему Ответить на тему


Сейчас этот форум просматривают: нет зарегистрированных пользователей и гости: 0


Вы не можете начинать темы
Вы не можете отвечать на сообщения
Вы не можете редактировать свои сообщения
Вы не можете удалять свои сообщения
Вы не можете добавлять вложения

Перейти:  
cron