Начать новую тему Ответить на тему
Статистика раздачи
Размер: 414.73 МБ | Добавлен: 26 июн 2020, 17:57 | Скачали: 0
Сидеров: 0  [0 байт/сек]    Личеров: 0  [0 байт/сек]
Пред. тема | След. тема 

Автор
Сообщение

СообщениеДобавлено: 26 июн 2020, 17:57 

Ответить с цитатой 

Aiboforcen - Face (Of) Death
Жанр: EBM, Industrial, Synth-pop
Год выпуска диска: 1996
Производитель диска: Germany
Аудио кодек: FLAC
Тип рипа: tracks+.cue
Битрейт аудио: lossless
Трэклист:
1 Face (Of) Death (1:06)
2 The Shepherd's Deathline (7" Mix) (4:13)
Remix - Aïboforcen
3 Ghost Of My Life (Nightlife Mix) (6:01)
Remix - Regenerator
4 The Shepherd's Deathline (Bastard Club Mix) (5:24)
Remix - New Mind
5 The Dying Rose (Deranged Psyche Mix) (4:15)
Remix - Aïboforcen
6 The Shepherd's Deathline (Neurotoxin Remix) (4:56)
Remix - Neuroactive
7 Key To Eternity (4:01)
8 E.W.I.F. (Fade To Digital Black Mix) (5:41)
Remix - Regenerator
9 Ghost Of My Life (Lullaby Mix) (4:11)
Remix - Fiction 8
10 1000 Masks (4:12)
11 The Shepherd's Deathline (Moon Over Red Sky's Mix) (5:10)
Remix - Leæther Strip
12 E.W.I.F. (Angelburn Version) (4:40)
Remix - VNV Nation
13 Feel The Icy Blast (Wind Walker Mix) (5:10)
Remix - Xingu Hill
Exact Audio Copy V0.99 prebeta 5 from 4. May 2009
EAC extraction logfile from 17. May 2009, 18:38
!AiBoFoRcEn<= / Face (of) Death
Used drive : Optiarc DVD RW AD-7200S Adapter: 5 ID: 0
Read mode : Secure
Utilize accurate stream : Yes
Defeat audio cache : Yes
Make use of C2 pointers : No
Read offset correction : 48
Overread into Lead-In and Lead-Out : No
Fill up missing offset samples with silence : Yes
Delete leading and trailing silent blocks : No
Null samples used in CRC calculations : Yes
Used interface : Native Win32 interface for Win NT & 2000
Gap handling : Appended to previous track
Used output format : User Defined Encoder
Selected bitrate : 128 kBit/s
Quality : High
Add ID3 tag : No
Command line compressor : C:\Program Files\Exact Audio Copy\Flac\flac.exe
Additional command line options : -V -8 -T "artist=%a" -T "title=%t" -T "album=%g" -T "date=%y" -T "tracknumber=%n" -T "genre=%m" %s
TOC of the extracted CD
Track | Start | Length | Start sector | End sector
---------------------------------------------------------
1 | 0:00.00 | 1:05.47 | 0 | 4921
2 | 1:05.47 | 4:13.29 | 4922 | 23925
3 | 5:19.01 | 6:01.26 | 23926 | 51026
4 | 11:20.27 | 5:23.58 | 51027 | 75309
5 | 16:44.10 | 4:15.19 | 75310 | 94453
6 | 20:59.29 | 4:55.40 | 94454 | 116618
7 | 25:54.69 | 4:00.62 | 116619 | 134680
8 | 29:55.56 | 5:41.36 | 134681 | 160291
9 | 35:37.17 | 4:11.32 | 160292 | 179148
10 | 39:48.49 | 4:12.32 | 179149 | 198080
11 | 44:01.06 | 5:10.36 | 198081 | 221366
12 | 49:11.42 | 4:39.58 | 221367 | 242349
13 | 53:51.25 | 5:10.27 | 242350 | 265626
Track 1
Filename F:\rips\Aiboforcen-Face_(Of)_Death_[flac]\01 - !AiBoFoRcEn[= - Face (of) Death.wav
Pre-gap length 0:00:02.00
Peak level 96.3 %
Track quality 100.0 %
Test CRC 5F9769C3
Copy CRC 5F9769C3
Copy OK
Track 2
Filename F:\rips\Aiboforcen-Face_(Of)_Death_[flac]\02 - !AiBoFoRcEn[= - The Shepherd's Deathline (7' mix by !AiBoFoRcEn[=).wav
Pre-gap length 0:00:02.00
Peak level 100.0 %
Track quality 100.0 %
Test CRC 9C8D8B19
Copy CRC 9C8D8B19
Copy OK
Track 3
Filename F:\rips\Aiboforcen-Face_(Of)_Death_[flac]\03 - !AiBoFoRcEn[= - Ghost Of My Life (Nightlife mix by Regenerator).wav
Pre-gap length 0:00:02.00
Peak level 100.0 %
Track quality 100.0 %
Test CRC 16A40E9A
Copy CRC 16A40E9A
Copy OK
Track 4
Filename F:\rips\Aiboforcen-Face_(Of)_Death_[flac]\04 - !AiBoFoRcEn[= - The Shepherd's Deathline (Bastard Club mix by New Mind).wav
Pre-gap length 0:00:02.00
Peak level 97.3 %
Track quality 99.9 %
Test CRC 0BC0EBDB
Copy CRC 0BC0EBDB
Copy OK
Track 5
Filename F:\rips\Aiboforcen-Face_(Of)_Death_[flac]\05 - !AiBoFoRcEn[= - The Dying Rose (Deranged PSYCE mix by !AiBoFoRcEn[=).wav
Pre-gap length 0:00:02.00
Peak level 99.9 %
Track quality 100.0 %
Test CRC D1577AD0
Copy CRC D1577AD0
Copy OK
Track 6
Filename F:\rips\Aiboforcen-Face_(Of)_Death_[flac]\06 - !AiBoFoRcEn[= - The Shepherd's Deathline (Neurotoxin remix by Neuroactive).wav
Pre-gap length 0:00:02.00
Peak level 98.1 %
Track quality 99.9 %
Test CRC 604018C7
Copy CRC 604018C7
Copy OK
Track 7
Filename F:\rips\Aiboforcen-Face_(Of)_Death_[flac]\07 - !AiBoFoRcEn[= - Key To Eternity.wav
Pre-gap length 0:00:02.00
Peak level 100.0 %
Track quality 100.0 %
Test CRC 0A8B63CE
Copy CRC 0A8B63CE
Copy OK
Track 8
Filename F:\rips\Aiboforcen-Face_(Of)_Death_[flac]\08 - !AiBoFoRcEn[= - E.W.I.F. (Fade To Digital Black mix by Rengenerator).wav
Pre-gap length 0:00:02.00
Peak level 99.9 %
Track quality 100.0 %
Test CRC 4B1C6CF8
Copy CRC 4B1C6CF8
Copy OK
Track 9
Filename F:\rips\Aiboforcen-Face_(Of)_Death_[flac]\09 - !AiBoFoRcEn[= - Ghost Of My Life (Lullaby mix by Fiction 8).wav
Pre-gap length 0:00:02.00
Peak level 97.3 %
Track quality 100.0 %
Test CRC 90F88A5F
Copy CRC 90F88A5F
Copy OK
Track 10
Filename F:\rips\Aiboforcen-Face_(Of)_Death_[flac]\10 - !AiBoFoRcEn[= - 1000 Masks.wav
Pre-gap length 0:00:02.00
Peak level 100.0 %
Track quality 100.0 %
Test CRC B3D1AFD6
Copy CRC B3D1AFD6
Copy OK
Track 11
Filename F:\rips\Aiboforcen-Face_(Of)_Death_[flac]\11 - !AiBoFoRcEn[= - The Shepherd's Deathline (Moon Over Red Sky's mix by Leather Strip).wav
Pre-gap length 0:00:02.00
Peak level 96.5 %
Track quality 99.9 %
Test CRC D44ADD80
Copy CRC D44ADD80
Copy OK
Track 12
Filename F:\rips\Aiboforcen-Face_(Of)_Death_[flac]\12 - !AiBoFoRcEn[= - E.W.I.F. (Angleburn version by VNV Nation).wav
Pre-gap length 0:00:02.00
Peak level 97.3 %
Track quality 100.0 %
Test CRC 6D0BA3F5
Copy CRC 6D0BA3F5
Copy OK
Track 13
Filename F:\rips\Aiboforcen-Face_(Of)_Death_[flac]\13 - !AiBoFoRcEn[= - Feel The Icy Blast (Wind-Walker mix by Xingu Hill).wav
Pre-gap length 0:00:02.00
Peak level 96.4 %
Track quality 100.0 %
Test CRC F2D1B532
Copy CRC F2D1B532
Copy OK
No errors occurred
End of status report
Правила, инструкции, FAQ!!!
Торрент  Добавлен [26 июн 2020, 17:57] Скачать торрент Магнет ссылка
Скачать торрент
[ Размер 18.04 КБ / Просмотров 11 ]

Статус
Проверен 
 
Размер  414.73 МБ
Приватный: Нет (DHT включён)
.torrent скачан  0
 


     Отправить личное сообщение
   
Страница 1 из 1
Показать сообщения за:  Поле сортировки  
Начать новую тему Ответить на тему


Сейчас этот форум просматривают: нет зарегистрированных пользователей и гости: 0


Вы не можете начинать темы
Вы не можете отвечать на сообщения
Вы не можете редактировать свои сообщения
Вы не можете удалять свои сообщения
Вы не можете добавлять вложения

Перейти:  
cron