Начать новую тему Ответить на тему
Статистика раздачи
Размер: 407.63 МБ | Добавлен: 26 июн 2020, 17:59 | Скачали: 0
Сидеров: 0  [0 байт/сек]    Личеров: 0  [0 байт/сек]
Пред. тема | След. тема 

Автор
Сообщение

СообщениеДобавлено: 26 июн 2020, 17:59 

Ответить с цитатой 

Suicide Commando - Face Of Death (Limited Double Single Box) 2CD
Жанр: EBM,Industrial
Год выпуска диска: 2003
Производитель диска: Germany
Аудио кодек: FLAC
Тип рипа: image+.cue
Битрейт аудио: lossless
Продолжительность: 59min 17sek
Трэклист:
CD 1
1. Face Of Death ( Torment 01)
2. Face Of Death ( Waking Up The Dancefloor Mix)
3. Deliver Us From Evil
4. Face Of Death (Intersekt Edit)
5. Face Of Death (Analogue Death Mix)
CD 2
1. Face Of Death ( Blind Rage Mix)
2. Face Of Death (FSK 18 Mix)
3. Love Breeds Suicide (Dioxide Mix)
4. Face Of Death (Cold Blood Version)
5. Sterbehilfe (Demo Version)
Доп. информация: Дтск из собственной коллекции. Сканы внутри.
Exact Audio Copy V0.99 prebeta 5 from 4. May 2009
Отчёт EAC об извлечении, выполненном 2. октября 2009, 14:25
Suicide Commando / Face Of Death
Дисковод: TSSTcorpCD/DVDW SH-S182M Adapter: 0 ID: 0
Режим чтения : Достоверность
Использование точного потока : Да
Отключение кэша аудио : Да
Использование указателей C2 : Нет
Коррекция смещения при чтении : 6
Способность читать области Lead-in и Lead-out : Нет
Заполнение пропущенных сэмплов тишиной : Да
Удаление блоков с тишиной в начале и конце : Нет
При вычислениях CRC использовались нулевые сэмплы : Да
Интерфейс : Встроенный Win32-интерфейс для Win NT/2000
Выходной формат : Пользовательский кодировщик
Выбранный битрейт : 768 kBit/s
Качество : Высокий
Добавление ID3-тэга : Нет
Утилита сжатия : C:\Program Files\Exact Audio Copy\FLAC\FLAC.EXE
Дополнительные параметры : -6 -V -T "ARTIST=%a" -T "TITLE=%t" -T "ALBUM=%g" -T "DATE=%y" -T "TRACKNUMBER=%n" -T "GENRE=%m" -T "COMMENT=%e" %s -o %d
TOC извлечённого CD
Трек | Старт | Длительность | Начальный сектор | Конечный сектор
---------------------------------------------------------------------
1 | 0:00.00 | 6:05.68 | 0 | 27442
2 | 6:05.68 | 5:29.32 | 27443 | 52149
3 | 11:35.25 | 6:52.56 | 52150 | 83105
4 | 18:28.06 | 5:31.59 | 83106 | 107989
5 | 23:59.65 | 4:36.74 | 107990 | 128763
Характеристики диапазона извлечения и сообщения об ошибках
Выбранный диапазон
Имя файла C:\Documents and Settings\User\Мои документы\Code\2003 Suicide Commando Face Of Death\CD 1\Suicide Commando - Face Of Death.wav
Пиковый уровень 89.1 %
Качество диапазона 100.0 %
CRC теста 75294D36
CRC копии 75294D36
Копирование... OK
Ошибок не произошло
AccurateRip: сводка
Трек 1 точное извлечение (доверие 4) [01F50791]
Трек 2 точное извлечение (доверие 4) [2BAE441C]
Трек 3 точное извлечение (доверие 4) [DE82BC82]
Трек 4 точное извлечение (доверие 4) [5265C406]
Трек 5 точное извлечение (доверие 4) [D48A527F]
Все треки извлечены точно
Конец отчёта
[/spoler]
Exact Audio Copy V0.99 prebeta 5 from 4. May 2009
Отчёт EAC об извлечении, выполненном 2. октября 2009, 15:06
Suicide Commando / Face Of Death
Дисковод: TSSTcorpCD/DVDW SH-S182M Adapter: 0 ID: 0
Режим чтения : Достоверность
Использование точного потока : Да
Отключение кэша аудио : Да
Использование указателей C2 : Нет
Коррекция смещения при чтении : 6
Способность читать области Lead-in и Lead-out : Нет
Заполнение пропущенных сэмплов тишиной : Да
Удаление блоков с тишиной в начале и конце : Нет
При вычислениях CRC использовались нулевые сэмплы : Да
Интерфейс : Встроенный Win32-интерфейс для Win NT/2000
Выходной формат : Пользовательский кодировщик
Выбранный битрейт : 768 kBit/s
Качество : Высокий
Добавление ID3-тэга : Нет
Утилита сжатия : C:\Program Files\Exact Audio Copy\FLAC\FLAC.EXE
Дополнительные параметры : -6 -V -T "ARTIST=%a" -T "TITLE=%t" -T "ALBUM=%g" -T "DATE=%y" -T "TRACKNUMBER=%n" -T "GENRE=%m" -T "COMMENT=%e" %s -o %d
TOC извлечённого CD
Трек | Старт | Длительность | Начальный сектор | Конечный сектор
---------------------------------------------------------------------
1 | 0:00.00 | 6:29.49 | 0 | 29223
2 | 6:29.49 | 6:07.36 | 29224 | 56784
3 | 12:37.10 | 5:52.20 | 56785 | 83204
4 | 18:29.30 | 6:26.20 | 83205 | 112174
5 | 24:55.50 | 5:41.42 | 112175 | 137791
Характеристики диапазона извлечения и сообщения об ошибках
Выбранный диапазон
Имя файла C:\Documents and Settings\User\Мои документы\Code\2003 Suicide Commando Face Of Death\CD 2\Suicide Commando - Face Of Death.wav
Пиковый уровень 98.8 %
Качество диапазона 100.0 %
CRC теста 79377308
CRC копии 79377308
Копирование... OK
Ошибок не произошло
AccurateRip: сводка
Трек 1 точное извлечение (доверие 3) [39798EC1]
Трек 2 точное извлечение (доверие 3) [2917D24F]
Трек 3 точное извлечение (доверие 3) [37D6E2C2]
Трек 4 точное извлечение (доверие 3) [3E97EDBF]
Трек 5 точное извлечение (доверие 3) [72449C2E]
Все треки извлечены точно
Конец отчёта
Правила, инструкции, FAQ!!!
Торрент  Добавлен [26 июн 2020, 17:59] Скачать торрент Магнет ссылка
Скачать торрент
[ Размер 17.01 КБ / Просмотров 10 ]

Статус
Проверен 
 
Размер  407.63 МБ
Приватный: Нет (DHT включён)
.torrent скачан  0
 


     Отправить личное сообщение
   
Страница 1 из 1
Показать сообщения за:  Поле сортировки  
Начать новую тему Ответить на тему


Сейчас этот форум просматривают: нет зарегистрированных пользователей и гости: 0


Вы не можете начинать темы
Вы не можете отвечать на сообщения
Вы не можете редактировать свои сообщения
Вы не можете удалять свои сообщения
Вы не можете добавлять вложения

Перейти:  
cron