Начать новую тему Ответить на тему
Статистика раздачи
Размер: 219.89 МБ | Добавлен: 26 июн 2020, 16:58 | Скачали: 0
Сидеров: 0  [0 байт/сек]    Личеров: 0  [0 байт/сек]
Пред. тема | След. тема 

Автор
Сообщение

СообщениеДобавлено: 26 июн 2020, 16:58 

Ответить с цитатой 

Straftanz - Straftanz
Жанр: EBM, Industrial
Год выпуска диска: 2006
Производитель диска: Germany - Mindbase
Аудио кодек: APE
Тип рипа: image+.cue
Битрейт аудио: lossless
Продолжительность: 28:40
Трэклист:
01. Straftanz (West)
02. Straftanz (Ost)
03. Straftanz (Süd) (feat. Reaper)
04. Eintausendmal
05. Straftanz (Ost) (feat. Agonoize)
06. Straftanz (Süd)
Доп. информация: Весьма танцевальный такой дебютничег...
Exact Audio Copy V0.99 prebeta 5 from 4. May 2009
EAC extraction logfile from 8. November 2009, 18:48
Straftanz / Straftanz
Used drive : PIONEER DVD-RW DVR-112D Adapter: 0 ID: 0
Read mode : Secure
Utilize accurate stream : Yes
Defeat audio cache : Yes
Make use of C2 pointers : No
Read offset correction : 48
Overread into Lead-In and Lead-Out : Yes
Fill up missing offset samples with silence : Yes
Delete leading and trailing silent blocks : No
Null samples used in CRC calculations : Yes
Used interface : Installed external ASPI interface
Used output format : Internal WAV Routines
Sample format : 44.100 Hz; 16 Bit; Stereo
TOC of the extracted CD
Track | Start | Length | Start sector | End sector
---------------------------------------------------------
1 | 0:00.01 | 4:52.58 | 1 | 21958
2 | 4:52.59 | 4:53.35 | 21959 | 43968
3 | 9:46.19 | 4:39.54 | 43969 | 64947
4 | 14:25.73 | 4:56.59 | 64948 | 87206
5 | 19:22.57 | 4:19.57 | 87207 | 106688
6 | 23:42.39 | 4:58.17 | 106689 | 129055
Range status and errors
Selected range
Filename C:\audiograbber\Ripping\Straftanz - Straftanz.wav
Peak level 100.0 %
Range quality 99.9 %
Test CRC E5E81F61
Copy CRC E5E81F61
Copy OK
No errors occurred
AccurateRip summary
Track 1 not present in database
Track 2 not present in database
Track 3 not present in database
Track 4 not present in database
Track 5 not present in database
Track 6 not present in database
None of the tracks are present in the AccurateRip database
End of status report
AUDIOCHECKER v2.0 beta (build 457) - by Dester - opdester@freemail.hu
~~~~~~~~~~~~~~~~~~~~~~~~~~~~~~~~~~
-=== НЕ РЕДАКТИРУЙТЕ ЭТОТ ФАЙЛ! ===-
Путь: ...\Straftanz
1 -=- Straftanz - Straftanz.ape -=- CDDA (100%)
223651636
Источник: Собственный рип, ковров не нашел.
Правила, инструкции, FAQ!!!
Торрент  Добавлен [26 июн 2020, 16:58] Скачать торрент Магнет ссылка
Скачать торрент
[ Размер 17.8 КБ / Просмотров 6 ]

Статус
Проверен 
 
Размер  219.89 МБ
Приватный: Нет (DHT включён)
.torrent скачан  0
 


     Отправить личное сообщение
   
Страница 1 из 1
Показать сообщения за:  Поле сортировки  
Начать новую тему Ответить на тему


Сейчас этот форум просматривают: нет зарегистрированных пользователей и гости: 0


Вы не можете начинать темы
Вы не можете отвечать на сообщения
Вы не можете редактировать свои сообщения
Вы не можете удалять свои сообщения
Вы не можете добавлять вложения

Перейти:  
cron