Начать новую тему Ответить на тему
Статистика раздачи
Размер: 508.61 МБ | Добавлен: 26 июн 2020, 16:58 | Скачали: 0
Сидеров: 0  [0 байт/сек]    Личеров: 0  [0 байт/сек]
Пред. тема | След. тема 

Автор
Сообщение

СообщениеДобавлено: 26 июн 2020, 16:58 

Ответить с цитатой 

Straftanz - Forward Ever , Backward Never
Жанр: EBM , Industrial
Год выпуска диска: 2008
Страна: Germany
Аудио кодек: FLAC
Тип рипа: image+.cue
Битрейт аудио: lossless
Продолжительность: 00:56:04
Трэклист:
1. Tanzt Kaputt Was Euch Kaputt Macht
2. Out Of Time
3. Finale Vollendung
4. Praise The Panic (feat. Mille)
5. Burn Down Heaven feat. Myk Jung)
6. Die Saege (feat. Hauke)
7. Gummimann
8. Doubt
9. Industrieschnee (Ode An Die Heimat) (feat. SITD)
10. D Z E
11. Blood In Blood Out
12. Straftanz
Код:
Exact Audio Copy V0.99 prebeta 5 from 4. May 2009
Отчёт EAC об извлечении, выполненном 8. июля 2009, 1:06
Straftanz / Backward Never , Backward Never !
Дисковод: PLEXTOR DVDR   PX-820SA   Adapter: 4  ID: 2
Режим чтения                 : Достоверность
Использование точного потока : Да
Отключение кэша аудио        : Да
Использование указателей C2  : Нет
Коррекция смещения при чтении                     : 48
Способность читать области Lead-in и Lead-out     : Нет
Заполнение пропущенных сэмплов тишиной            : Да
Удаление блоков с тишиной в начале и конце        : Нет
При вычислениях CRC использовались нулевые сэмплы : Да
Интерфейс                                         : Встроенный Win32-интерфейс для Win NT/2000
Выходной формат          : Пользовательский кодировщик
Выбранный битрейт        : 1024 kBit/s
Качество                 : Высокий
Добавление ID3-тэга      : Нет
Утилита сжатия           : C:\Program Files\Exact Audio Copy\FLAC\FLAC.EXE
Дополнительные параметры : -8 -V -T "ARTIST=%a" -T "TITLE=%t" -T "ALBUM=%g" -T "DATE=%y" -T "TRACKNUMBER=%n" -T "GENRE=%m" -T "COMMENT=%e" %s -o %d
TOC извлечённого CD
     Трек |   Старт  | Длительность | Начальный сектор | Конечный сектор
    ---------------------------------------------------------------------
       1  |  0:00.00 |    5:04.70   |           0      |      22869
       2  |  5:04.70 |    5:00.07   |       22870      |      45376
       3  | 10:05.02 |    4:52.50   |       45377      |      67326
       4  | 14:57.52 |    4:45.24   |       67327      |      88725
       5  | 19:43.01 |    4:25.46   |       88726      |     108646
       6  | 24:08.47 |    1:29.59   |      108647      |     115380
       7  | 25:38.31 |    5:28.18   |      115381      |     139998
       8  | 31:06.49 |    6:25.72   |      139999      |     168945
       9  | 37:32.46 |    4:38.22   |      168946      |     189817
      10  | 42:10.68 |    4:00.19   |      189818      |     207836
      11  | 46:11.12 |    5:02.53   |      207837      |     230539
      12  | 51:13.65 |    4:50.11   |      230540      |     252300
Характеристики диапазона извлечения и сообщения об ошибках
Выбранный диапазон
     Имя файла E:\Straftanz - Backward Never , Backward Never !.wav
     Пиковый уровень 100.0 %
     Качество диапазона 100.0 %
     CRC теста 9814C064
     CRC копии 9814C064
     Копирование... OK
Ошибок не произошло
Конец отчёта
Код:
AUDIOCHECKER v2.0 beta (build 457) - by Dester - opdester@freemail.hu
~~~~~~~~~~~~~~~~~~~~~~~~~~~~~~~~~~
-=== НЕ РЕДАКТИРУЙТЕ ЭТОТ ФАЙЛ! ===-
Путь: ...\Straftanz  -  Forward Ever , Backward Never (2008)
1 -=- Straftanz - Backward Never , Backward Never !.flac -=- CDDA (99%)
101226804
Правила, инструкции, FAQ!!!
Торрент  Добавлен [26 июн 2020, 16:58] Скачать торрент Магнет ссылка
Скачать торрент
[ Размер 21.17 КБ / Просмотров 6 ]

Статус
Проверен 
 
Размер  508.61 МБ
Приватный: Нет (DHT включён)
.torrent скачан  0
 


     Отправить личное сообщение
   
Страница 1 из 1
Показать сообщения за:  Поле сортировки  
Начать новую тему Ответить на тему


Сейчас этот форум просматривают: нет зарегистрированных пользователей и гости: 0


Вы не можете начинать темы
Вы не можете отвечать на сообщения
Вы не можете редактировать свои сообщения
Вы не можете удалять свои сообщения
Вы не можете добавлять вложения

Перейти:  
cron