Начать новую тему Ответить на тему
Статистика раздачи
Размер: 341.73 МБ | Добавлен: 26 июн 2020, 20:20 | Скачали: 0
Сидеров: 0  [0 байт/сек]    Личеров: 0  [0 байт/сек]
Пред. тема | След. тема 

Автор
Сообщение

СообщениеДобавлено: 26 июн 2020, 20:20 

Ответить с цитатой 

Steinkind / Galle, Gift Und Größenwahn (Galle, Gift Und Grobenwahn)
Жанр: EBM, Industrial
Носитель: CD
Страна-производитель диска (релиза): Germany
Год издания: 2009
Издатель (лейбл): Vail Records
Номер по каталогу: VAIL 07
Страна исполнителя (группы): Germany
Аудиокодек: FLAC (*.flac)
Тип рипа: image+.cue
Продолжительность: 0:50:41:49
Источник: собственный рип
Наличие сканов в содержимом раздачи: нет
Треклист:
1 Kindgott 5:28
2 Arsch Rein 3:26
3 Disco - Anarchie 5:12
4 G-Punkt (Raul) 4:32
5 Wort 3:56
6 Ohne Dich 4:10
7 Weit, Weit Weg 4:03
8 Lügner 4:56
9 Ich Bin Zurück (Album Edit) 4:46
10 Warum 3:31
11 Krank 3:13
12 Nie Mehr 3:22
Код:
Exact Audio Copy V1.0 beta 3 from 29. August 2011
Отчёт EAC об извлечении, выполненном 9. ноября 2019, 23:25
Steinkind / Galle, Gift Und Größenwahn
Дисковод: TSSTcorpCDDVDW SH-224DB   Adapter: 1  ID: 0
Режим чтения                 : Достоверность
Использование точного потока : Да
Отключение кэша аудио        : Да
Использование указателей C2  : Нет
Коррекция смещения при чтении                     : 6
Способность читать области Lead-in и Lead-out     : Нет
Заполнение пропущенных сэмплов тишиной            : Да
Удаление блоков с тишиной в начале и конце        : Нет
При вычислениях CRC использовались нулевые сэмплы : Да
Интерфейс                                         : Встроенный Win32-интерфейс для Win NT/2000
Выходной формат          : Пользовательский кодировщик
Выбранный битрейт        : 128 kBit/s
Качество                 : Высокий
Добавление ID3-тега      : Нет
Утилита сжатия           : C:\Program Files (x86)\FLAC\flac.exe
Дополнительные параметры : -V -8 -T "Date=%year%" -T "Genre=%genre%" %source%
TOC извлечённого CD
     Трек |   Старт  | Длительность | Начальный сектор | Конечный сектор
    ---------------------------------------------------------------------
       1  |  0:00.00 |    5:28.72   |           0      |      24671
       2  |  5:28.72 |    3:26.25   |       24672      |      40146
       3  |  8:55.22 |    5:12.63   |       40147      |      63609
       4  | 14:08.10 |    4:32.07   |       63610      |      84016
       5  | 18:40.17 |    3:56.35   |       84017      |     101751
       6  | 22:36.52 |    4:10.45   |      101752      |     120546
       7  | 26:47.22 |    4:03.04   |      120547      |     138775
       8  | 30:50.26 |    4:56.58   |      138776      |     161033
       9  | 35:47.09 |    4:46.65   |      161034      |     182548
      10  | 40:33.74 |    3:31.72   |      182549      |     198445
      11  | 44:05.71 |    3:13.42   |      198446      |     212962
      12  | 47:19.38 |    3:22.21   |      212963      |     228133
Характеристики диапазона извлечения и сообщения об ошибках
Выбранный диапазон
     Имя файла C:\EAC\Steinkind ‎– Galle, Gift Und Großenwahn - 2009 CD\Steinkind - Galle, Gift Und Größenwahn.wav
     Пиковый уровень 97.7 %
     Скорость извлечения 7.3 X
     Качество диапазона 99.9 %
     CRC теста FE763465
     CRC копии FE763465
     Копирование... OK
Ошибок не произошло
AccurateRip: сводка
Трек  1  : извлечено точно (доверие 6)  [FEE6B738]  (AR v2)
Трек  2  : извлечено точно (доверие 6)  [31847568]  (AR v2)
Трек  3  : извлечено точно (доверие 6)  [0724AECF]  (AR v2)
Трек  4  : извлечено точно (доверие 6)  [020BC133]  (AR v2)
Трек  5  : извлечено точно (доверие 6)  [27C4370A]  (AR v2)
Трек  6  : извлечено точно (доверие 6)  [A0E2ECCD]  (AR v2)
Трек  7  : извлечено точно (доверие 6)  [5247A1F1]  (AR v2)
Трек  8  : извлечено точно (доверие 6)  [BBAA7051]  (AR v2)
Трек  9  : извлечено точно (доверие 6)  [5574A5E5]  (AR v2)
Трек 10  : извлечено точно (доверие 6)  [EB130FFC]  (AR v2)
Трек 11  : извлечено точно (доверие 6)  [63BE5427]  (AR v2)
Трек 12  : извлечено точно (доверие 6)  [5E73775B]  (AR v2)
Все треки извлечены точно
Конец отчёта
==== Контрольная сумма отчёта 4D70290355C45D4DF3ACC8D2EC676A724E8D404B8FB6AD17ACA24760D9BE0204 ====
Код:
REM DATE 2009
REM DISCID 9B0BE10C
REM COMMENT "ExactAudioCopy v1.0b3"
PERFORMER "Steinkind"
TITLE "Galle, Gift Und Gro.enwahn"
FILE "Steinkind - Galle, Gift Und Gro.enwahn.flac" WAVE
  TRACK 01 AUDIO
    TITLE "Kindgott"
    PERFORMER "Steinkind"
    FLAGS DCP
    INDEX 01 00:00:00
  TRACK 02 AUDIO
    TITLE "Arsch Rein"
    PERFORMER "Steinkind"
    FLAGS DCP
    INDEX 00 05:28:55
    INDEX 01 05:28:72
  TRACK 03 AUDIO
    TITLE "Disco - Anarchie"
    PERFORMER "Steinkind"
    FLAGS DCP
    INDEX 01 08:55:22
  TRACK 04 AUDIO
    TITLE "G-Punkt (Raul)"
    PERFORMER "Steinkind"
    FLAGS DCP
    INDEX 00 14:07:53
    INDEX 01 14:08:10
  TRACK 05 AUDIO
    TITLE "Wort"
    PERFORMER "Steinkind"
    FLAGS DCP
    INDEX 01 18:40:17
  TRACK 06 AUDIO
    TITLE "Ohne Dich"
    PERFORMER "Steinkind"
    FLAGS DCP
    INDEX 01 22:36:52
  TRACK 07 AUDIO
    TITLE "Weit, Weit Weg"
    PERFORMER "Steinkind"
    FLAGS DCP
    INDEX 01 26:47:22
  TRACK 08 AUDIO
    TITLE "Lugner"
    PERFORMER "Steinkind"
    FLAGS DCP
    INDEX 00 30:49:53
    INDEX 01 30:50:26
  TRACK 09 AUDIO
    TITLE "Ich Bin Zuruck (Album Edit)"
    PERFORMER "Steinkind"
    FLAGS DCP
    INDEX 00 35:44:20
    INDEX 01 35:47:09
  TRACK 10 AUDIO
    TITLE "Warum"
    PERFORMER "Steinkind"
    FLAGS DCP
    INDEX 01 40:33:74
  TRACK 11 AUDIO
    TITLE "Krank"
    PERFORMER "Steinkind"
    FLAGS DCP
    INDEX 00 44:05:03
    INDEX 01 44:05:71
  TRACK 12 AUDIO
    TITLE "Nie Mehr"
    PERFORMER "Steinkind"
    FLAGS DCP
    INDEX 01 47:19:38
Правила, инструкции, FAQ!!!
Торрент  Добавлен [26 июн 2020, 20:20] Скачать торрент Магнет ссылка
Скачать торрент
[ Размер 14.07 КБ / Просмотров 7 ]

Статус
Проверен 
 
Размер  341.73 МБ
Приватный: Нет (DHT включён)
.torrent скачан  0
 


     Отправить личное сообщение
   
Страница 1 из 1
Показать сообщения за:  Поле сортировки  
Начать новую тему Ответить на тему


Сейчас этот форум просматривают: нет зарегистрированных пользователей и гости: 0


Вы не можете начинать темы
Вы не можете отвечать на сообщения
Вы не можете редактировать свои сообщения
Вы не можете удалять свои сообщения
Вы не можете добавлять вложения

Перейти:  
cron