Начать новую тему Ответить на тему
Статистика раздачи
Размер: 1000.24 МБ | Добавлен: 26 июн 2020, 19:43 | Скачали: 0
Сидеров: 0  [0 байт/сек]    Личеров: 0  [0 байт/сек]
Пред. тема | След. тема 

Автор
Сообщение

СообщениеДобавлено: 26 июн 2020, 19:43 

Ответить с цитатой 

Stahlnebel & Black Selket / Unexpected (2CD)
Жанр: EBM, Industrial
Страна-производитель диска: Germany
Год издания диска: 2009
Издатель (лейбл): STAHLBLACK productions
Номер по каталогу: Stahlblack 001
Страна: Germany/Holland
Аудио кодек: FLAC (*.flac)
Тип рипа: image+.cue
Битрейт аудио: lossless
Продолжительность: 1:06:04.63 + 1:03:22.66
Источник (релизер): 2CD из личной коллекции.
Наличие сканов в содержимом раздачи: да
Треклист:
CD 1 - "Unexpected"
01. Intro 1:12
02. Salvation 4:33
03. Unexpected 4:43
04. Each Day 5:56
05. Devils Army 4:36
06. Dead Man 5:33
07. Under Control 4:14
08. Sick World 4:20
09. Unsichtbar 4:14
10. Deadly Perception 5:08
11. Evil Human 5:12
12. Deep Inside 3:30
13. Storm 7:17
14. The End 5:08
CD 2 - "No Borders, We Are United"
01. Stalingrad (Featuring Menschdefekt) 4:15
02. Anxiety Neuroses (Featuring Vision Anomaly) 5:45
03. Ghosts (Featuring Cold Sequence) 5:11
04. Unexpected (Remix by Die With You) 5:28
05. Unsichtbar (Remix by Anamadim)6:38
06. Unexpected (Remix by Cryogen Second) 5:08
07. Angels Die (Featuring Vision Anomaly) 4:40
08. Gottes Zorn (Featuring Menschdefekt) 4:49
09. Unexpected (Remix by Cold Sequence) 4:04
10. Unsichtbar (Remix by Juno Mission) 4:01
11. Unexpected (Remix by Led Manville) 4:56
12. Unsichtbar (Remix by Impact Pulse) 3:57
13. Unexpected (Remix by Cold Drive) 4:02
Discogs
Код:
Exact Audio Copy V0.99 prebeta 5 from 4. May 2009
Отчёт EAC об извлечении, выполненном 8. мая 2011, 13:57
Stahlnebel & Black Selket / Unexpected (CD 1)
Дисковод: TSSTcorpCDDVDW TS-L632H   Adapter: 0  ID: 0
Режим чтения                 : Достоверность
Использование точного потока : Да
Отключение кэша аудио        : Да
Использование указателей C2  : Нет
Коррекция смещения при чтении                     : 6
Способность читать области Lead-in и Lead-out     : Нет
Заполнение пропущенных сэмплов тишиной            : Да
Удаление блоков с тишиной в начале и конце        : Нет
При вычислениях CRC использовались нулевые сэмплы : Да
Интерфейс                                         : Встроенный Win32-интерфейс для Win NT/2000
Выходной формат          : Пользовательский кодировщик
Выбранный битрейт        : 1024 kBit/s
Качество                 : Высокий
Добавление ID3-тэга      : Нет
Утилита сжатия           : C:\Program Files\Exact Audio Copy\FLAC\FLAC.EXE
Дополнительные параметры : -6 -V -T "ARTIST=%a" -T "TITLE=%t" -T "ALBUM=%g" -T "DATE=%y" -T "TRACKNUMBER=%n" -T "GENRE=%m" -T "COMMENT=%e" %s -o %d
TOC извлечённого CD
     Трек |   Старт  | Длительность | Начальный сектор | Конечный сектор
    ---------------------------------------------------------------------
       1  |  0:00.00 |    1:14.28   |           0      |       5577
       2  |  1:14.28 |    4:35.18   |        5578      |      26220
       3  |  5:49.46 |    4:45.65   |       26221      |      47660
       4  | 10:35.36 |    5:58.00   |       47661      |      74510
       5  | 16:33.36 |    4:38.00   |       74511      |      95360
       6  | 21:11.36 |    5:35.00   |       95361      |     120485
       7  | 26:46.36 |    4:16.00   |      120486      |     139685
       8  | 31:02.36 |    4:22.37   |      139686      |     159372
       9  | 35:24.73 |    4:16.16   |      159373      |     178588
      10  | 39:41.14 |    5:10.00   |      178589      |     201838
      11  | 44:51.14 |    5:14.00   |      201839      |     225388
      12  | 50:05.14 |    3:32.00   |      225389      |     241288
      13  | 53:37.14 |    7:19.28   |      241289      |     274241
      14  | 60:56.42 |    5:08.21   |      274242      |     297362
Характеристики диапазона извлечения и сообщения об ошибках
Выбранный диапазон
     Имя файла C:\Users\Алексей\Desktop\iPOD\Stahlnebel & Black Selket - Unexpected (CD 1).wav
     Пиковый уровень 99.0 %
     Качество диапазона 99.9 %
     CRC теста 051935A6
     CRC копии 051935A6
     Копирование... OK
Ошибок не произошло
AccurateRip: сводка
Трек  1  нет в базе данных
Трек  2  нет в базе данных
Трек  3  нет в базе данных
Трек  4  нет в базе данных
Трек  5  нет в базе данных
Трек  6  нет в базе данных
Трек  7  нет в базе данных
Трек  8  нет в базе данных
Трек  9  нет в базе данных
Трек 10  нет в базе данных
Трек 11  нет в базе данных
Трек 12  нет в базе данных
Трек 13  нет в базе данных
Трек 14  нет в базе данных
Ни одного трека нет в базе AccurateRip
Конец отчёта
Код:
Exact Audio Copy V0.99 prebeta 5 from 4. May 2009
Отчёт EAC об извлечении, выполненном 8. мая 2011, 14:44
Stahlnebel & Black Selket / Unexpected (CD 2)-No Borders, We Are United
Дисковод: TSSTcorpCDDVDW TS-L632H   Adapter: 0  ID: 0
Режим чтения                 : Достоверность
Использование точного потока : Да
Отключение кэша аудио        : Да
Использование указателей C2  : Нет
Коррекция смещения при чтении                     : 6
Способность читать области Lead-in и Lead-out     : Нет
Заполнение пропущенных сэмплов тишиной            : Да
Удаление блоков с тишиной в начале и конце        : Нет
При вычислениях CRC использовались нулевые сэмплы : Да
Интерфейс                                         : Встроенный Win32-интерфейс для Win NT/2000
Выходной формат          : Пользовательский кодировщик
Выбранный битрейт        : 1024 kBit/s
Качество                 : Высокий
Добавление ID3-тэга      : Нет
Утилита сжатия           : C:\Program Files\Exact Audio Copy\FLAC\FLAC.EXE
Дополнительные параметры : -6 -V -T "ARTIST=%a" -T "TITLE=%t" -T "ALBUM=%g" -T "DATE=%y" -T "TRACKNUMBER=%n" -T "GENRE=%m" -T "COMMENT=%e" %s -o %d
TOC извлечённого CD
     Трек |   Старт  | Длительность | Начальный сектор | Конечный сектор
    ---------------------------------------------------------------------
       1  |  0:00.00 |    4:17.37   |           0      |      19311
       2  |  4:17.37 |    5:47.05   |       19312      |      45341
       3  | 10:04.42 |    5:13.18   |       45342      |      68834
       4  | 15:17.60 |    5:28.15   |       68835      |      93449
       5  | 20:46.00 |    6:40.58   |       93450      |     123507
       6  | 27:26.58 |    5:10.60   |      123508      |     146817
       7  | 32:37.43 |    4:42.66   |      146818      |     168033
       8  | 37:20.34 |    4:51.33   |      168034      |     189891
       9  | 42:11.67 |    4:06.26   |      189892      |     208367
      10  | 46:18.18 |    4:03.63   |      208368      |     226655
      11  | 50:22.06 |    4:58.29   |      226656      |     249034
      12  | 55:20.35 |    3:59.69   |      249035      |     267028
      13  | 59:20.29 |    4:02.37   |      267029      |     285215
Характеристики диапазона извлечения и сообщения об ошибках
Выбранный диапазон
     Имя файла C:\Users\Алексей\Desktop\iPOD\Stahlnebel & Black Selket - Unexpected (CD 2)-No Borders, We Are United.wav
     Пиковый уровень 99.0 %
     Качество диапазона 100.0 %
     CRC теста EBC1E2C8
     CRC копии EBC1E2C8
     Копирование... OK
Ошибок не произошло
AccurateRip: сводка
Трек  1  нет в базе данных
Трек  2  нет в базе данных
Трек  3  нет в базе данных
Трек  4  нет в базе данных
Трек  5  нет в базе данных
Трек  6  нет в базе данных
Трек  7  нет в базе данных
Трек  8  нет в базе данных
Трек  9  нет в базе данных
Трек 10  нет в базе данных
Трек 11  нет в базе данных
Трек 12  нет в базе данных
Трек 13  нет в базе данных
Ни одного трека нет в базе AccurateRip
Конец отчёта
Код:
REM GENRE "EBM Industrial"
REM DATE 2009
REM DISCID CC0F7C0E
REM COMMENT "ExactAudioCopy v0.99pb5"
PERFORMER "Stahlnebel & Black Selket"
TITLE "Unexpected (CD 1)"
FILE "Stahlnebel & Black Selket - Unexpected (CD 1).flac" WAVE
  TRACK 01 AUDIO
    TITLE "Intro"
    PERFORMER "Stahlnebel & Black Selket"
    FLAGS DCP
    INDEX 01 00:00:00
  TRACK 02 AUDIO
    TITLE "Salvation"
    PERFORMER "Stahlnebel & Black Selket"
    FLAGS DCP
    INDEX 01 01:14:28
  TRACK 03 AUDIO
    TITLE "Unexpected"
    PERFORMER "Stahlnebel & Black Selket"
    FLAGS DCP
    INDEX 01 05:49:46
  TRACK 04 AUDIO
    TITLE "Each Day"
    PERFORMER "Stahlnebel & Black Selket"
    FLAGS DCP
    INDEX 01 10:35:36
  TRACK 05 AUDIO
    TITLE "Devils Army"
    PERFORMER "Stahlnebel & Black Selket"
    FLAGS DCP
    INDEX 01 16:33:36
  TRACK 06 AUDIO
    TITLE "Dead Man"
    PERFORMER "Stahlnebel & Black Selket"
    FLAGS DCP
    INDEX 01 21:11:36
  TRACK 07 AUDIO
    TITLE "Under Control"
    PERFORMER "Stahlnebel & Black Selket"
    FLAGS DCP
    INDEX 01 26:46:36
  TRACK 08 AUDIO
    TITLE "Sick World"
    PERFORMER "Stahlnebel & Black Selket"
    FLAGS DCP
    INDEX 01 31:02:36
  TRACK 09 AUDIO
    TITLE "Unsichtbar"
    PERFORMER "Stahlnebel & Black Selket"
    FLAGS DCP
    INDEX 01 35:24:73
  TRACK 10 AUDIO
    TITLE "Deadly Perception"
    PERFORMER "Stahlnebel & Black Selket"
    FLAGS DCP
    INDEX 01 39:41:14
  TRACK 11 AUDIO
    TITLE "Evil Human"
    PERFORMER "Stahlnebel & Black Selket"
    FLAGS DCP
    INDEX 01 44:51:14
  TRACK 12 AUDIO
    TITLE "Deep Inside"
    PERFORMER "Stahlnebel & Black Selket"
    FLAGS DCP
    INDEX 01 50:05:14
  TRACK 13 AUDIO
    TITLE "Storm"
    PERFORMER "Stahlnebel & Black Selket"
    FLAGS DCP
    INDEX 01 53:37:14
  TRACK 14 AUDIO
    TITLE "The End"
    PERFORMER "Stahlnebel & Black Selket"
    FLAGS DCP
    INDEX 01 60:56:42
Код:
REM GENRE "EBM Industrial"
REM DATE 2009
REM DISCID B60EDA0D
REM COMMENT "ExactAudioCopy v0.99pb5"
PERFORMER "Stahlnebel & Black Selket"
TITLE "Unexpected (CD 2)-No Borders, We Are United"
FILE "Stahlnebel & Black Selket - Unexpected (CD 2)-No Borders, We Are United.flac" WAVE
  TRACK 01 AUDIO
    TITLE "Stalingrad (feat. MENSCHDEFEKT)  "
    PERFORMER "Stahlnebel & Black Selket"
    FLAGS DCP
    INDEX 01 00:00:00
  TRACK 02 AUDIO
    TITLE "Anxiety neuroses (feat. VISION ANOMALY) "
    PERFORMER "Stahlnebel & Black Selket"
    FLAGS DCP
    INDEX 01 04:17:37
  TRACK 03 AUDIO
    TITLE "Ghosts (feat. COLD SEQUENCE)"
    PERFORMER "Stahlnebel & Black Selket"
    FLAGS DCP
    INDEX 01 10:04:42
  TRACK 04 AUDIO
    TITLE "Unexpected (Remixed by DIE WITH YOU)"
    PERFORMER "Stahlnebel & Black Selket"
    FLAGS DCP
    INDEX 01 15:17:60
  TRACK 05 AUDIO
    TITLE "Unsichtbar (Remixed by ANAMADIM) "
    PERFORMER "Stahlnebel & Black Selket"
    FLAGS DCP
    INDEX 01 20:46:00
  TRACK 06 AUDIO
    TITLE "Unexpected (Remixed by CRYOGEN SECOND) "
    PERFORMER "Stahlnebel & Black Selket"
    FLAGS DCP
    INDEX 01 27:26:58
  TRACK 07 AUDIO
    TITLE "Angels die (feat. VISION ANOMALY)"
    PERFORMER "Stahlnebel & Black Selket"
    FLAGS DCP
    INDEX 01 32:37:43
  TRACK 08 AUDIO
    TITLE "Gottes Zorn (feat. MENSCHDEFEKT)"
    PERFORMER "Stahlnebel & Black Selket"
    FLAGS DCP
    INDEX 01 37:20:34
  TRACK 09 AUDIO
    TITLE "Unexpected (Remixed by COLD SEQUENCE)"
    PERFORMER "Stahlnebel & Black Selket"
    FLAGS DCP
    INDEX 01 42:11:67
  TRACK 10 AUDIO
    TITLE "Unsichtbar (Remixed by JUNO MISSION) "
    PERFORMER "Stahlnebel & Black Selket"
    FLAGS DCP
    INDEX 01 46:18:18
  TRACK 11 AUDIO
    TITLE "Unexpected (remixed by Led Manville)  "
    PERFORMER "Stahlnebel & Black Selket"
    FLAGS DCP
    INDEX 01 50:22:06
  TRACK 12 AUDIO
    TITLE "Unsichtbar (Remixed by IMPACT PULSE)"
    PERFORMER "Stahlnebel & Black Selket"
    FLAGS DCP
    INDEX 01 55:20:35
  TRACK 13 AUDIO
    TITLE "Unexpected (Remixed by COLD DRIVE)"
    PERFORMER "Stahlnebel & Black Selket"
    FLAGS DCP
    INDEX 01 59:20:29
Код:
[url=https://fastpic.ru/view/17/2011/0522/a5779fc7fdff69ef0bc772c05a9973fd.jpg.html][img]http://i17.fastpic.ru/thumb/2011/0522/fd/a5779fc7fdff69ef0bc772c05a9973fd.jpeg[/img][/url][url=https://fastpic.ru/view/5/2011/0522/f9a1eba5a82cab57a7a768d93dd42d7d.jpg.html][img]http://i5.fastpic.ru/thumb/2011/0522/7d/f9a1eba5a82cab57a7a768d93dd42d7d.jpeg[/img][/url][url=https://fastpic.ru/view/11/2011/0522/261a2e7c668dc39530db7ea229c6b485.jpg.html][img]http://i11.fastpic.ru/thumb/2011/0522/85/261a2e7c668dc39530db7ea229c6b485.jpeg[/img][/url][url=https://fastpic.ru/view/5/2011/0522/99703ef5ec9b586bb57220f9dc383099.jpg.html][img]http://i5.fastpic.ru/thumb/2011/0522/99/99703ef5ec9b586bb57220f9dc383099.jpeg[/img][/url]
[url=https://fastpic.ru/view/17/2011/0522/dc4154fffbe161f95b160b7d9902eb68.jpg.html][img]http://i17.fastpic.ru/thumb/2011/0522/68/dc4154fffbe161f95b160b7d9902eb68.jpeg[/img][/url][url=https://fastpic.ru/view/17/2011/0522/936d2aa90853faecbb12ebe8ed07b9b5.jpg.html][img]http://i17.fastpic.ru/thumb/2011/0522/b5/936d2aa90853faecbb12ebe8ed07b9b5.jpeg[/img][/url][url=https://fastpic.ru/view/15/2011/0522/d1dd1803a12efe8fd4da5dc487cf376f.jpg.html][img]http://i15.fastpic.ru/thumb/2011/0522/6f/d1dd1803a12efe8fd4da5dc487cf376f.jpeg[/img][/url][url=https://fastpic.ru/view/5/2011/0522/965c621028ddd2cf2fbf2a7387185197.jpg.html][img]http://i5.fastpic.ru/thumb/2011/0522/97/965c621028ddd2cf2fbf2a7387185197.jpeg[/img][/url]
Выражаю благодарность kergarn`у за HQ scans!
Правила, инструкции, FAQ!!!
Торрент  Добавлен [26 июн 2020, 19:43] Скачать торрент Магнет ссылка
Скачать торрент
[ Размер 21.9 КБ / Просмотров 15 ]

Статус
Проверен 
 
Размер  1000.24 МБ
Приватный: Нет (DHT включён)
.torrent скачан  0
 


     Отправить личное сообщение
   
Страница 1 из 1
Показать сообщения за:  Поле сортировки  
Начать новую тему Ответить на тему


Сейчас этот форум просматривают: нет зарегистрированных пользователей и гости: 0


Вы не можете начинать темы
Вы не можете отвечать на сообщения
Вы не можете редактировать свои сообщения
Вы не можете удалять свои сообщения
Вы не можете добавлять вложения

Перейти:  
cron