Начать новую тему Ответить на тему
Статистика раздачи
Размер: 322.96 МБ | Добавлен: 26 июн 2020, 19:43 | Скачали: 0
Сидеров: 0  [0 байт/сек]    Личеров: 0  [0 байт/сек]
Пред. тема | След. тема 

Автор
Сообщение

СообщениеДобавлено: 26 июн 2020, 19:43 

Ответить с цитатой 

Stahlnebel & Black Selket / Memories (MCD Limited Edition)
Жанр: EBM, Industrial
Страна-производитель диска: Hungary
Год издания диска: 2010
Издатель (лейбл): Advoxya
Номер по каталогу: AD-LTD-01
Страна: Germany/Holland
Аудио кодек: FLAC (*.flac)
Тип рипа: image+.cue
Битрейт аудио: lossless
Продолжительность: 0:39:58.67
Источник (релизер): CD из личной коллекции.
Наличие сканов в содержимом раздачи: да
Треклист:
01. Memories (Album Version) 6:34
02. Black Treath (Exclusive Non Album Track) 5:36
03. Memories (Remixed By A7IE) 6:01
04. Staatssicherheit (Remixed By Electrovot) 5:33
05. Angels & Demons (Remixed By Sadiztik:Injektion) 4:50
06. Memories (Remixed By The Twilight Freakshow) 6:04
07. Staatssicherheit (Darkside Mix By Vision Anomaly) 5:15
Discogs
Код:
Exact Audio Copy V0.99 prebeta 5 from 4. May 2009
Отчёт EAC об извлечении, выполненном 8. мая 2011, 13:17
Stahlnebel & Black Selket / Memories MCD
Дисковод: TSSTcorpCDDVDW TS-L632H   Adapter: 0  ID: 0
Режим чтения                 : Достоверность
Использование точного потока : Да
Отключение кэша аудио        : Да
Использование указателей C2  : Нет
Коррекция смещения при чтении                     : 6
Способность читать области Lead-in и Lead-out     : Нет
Заполнение пропущенных сэмплов тишиной            : Да
Удаление блоков с тишиной в начале и конце        : Нет
При вычислениях CRC использовались нулевые сэмплы : Да
Интерфейс                                         : Встроенный Win32-интерфейс для Win NT/2000
Выходной формат          : Пользовательский кодировщик
Выбранный битрейт        : 1024 kBit/s
Качество                 : Высокий
Добавление ID3-тэга      : Нет
Утилита сжатия           : C:\Program Files\Exact Audio Copy\FLAC\FLAC.EXE
Дополнительные параметры : -6 -V -T "ARTIST=%a" -T "TITLE=%t" -T "ALBUM=%g" -T "DATE=%y" -T "TRACKNUMBER=%n" -T "GENRE=%m" -T "COMMENT=%e" %s -o %d
TOC извлечённого CD
     Трек |   Старт  | Длительность | Начальный сектор | Конечный сектор
    ---------------------------------------------------------------------
       1  |  0:00.00 |    6:36.53   |           0      |      29752
       2  |  6:36.53 |    5:38.46   |       29753      |      55148
       3  | 12:15.24 |    6:03.37   |       55149      |      82410
       4  | 18:18.61 |    5:31.44   |       82411      |     107279
       5  | 23:50.30 |    4:52.00   |      107280      |     129179
       6  | 28:42.30 |    6:06.37   |      129180      |     156666
       7  | 34:48.67 |    5:10.00   |      156667      |     179916
Характеристики диапазона извлечения и сообщения об ошибках
Выбранный диапазон
     Имя файла C:\Users\Алексей\Desktop\iPOD\Stahlnebel & Black Selket - Memories.wav
     Пиковый уровень 100.0 %
     Качество диапазона 100.0 %
     CRC теста 94568DAB
     CRC копии 94568DAB
     Копирование... OK
Ошибок не произошло
AccurateRip: сводка
Трек  1  нет в базе данных
Трек  2  нет в базе данных
Трек  3  нет в базе данных
Трек  4  нет в базе данных
Трек  5  нет в базе данных
Трек  6  нет в базе данных
Трек  7  нет в базе данных
Ни одного трека нет в базе AccurateRip
Конец отчёта
Код:
REM GENRE "EBM Industrial"
REM DATE 2010
REM DISCID 4C095E07
REM COMMENT "ExactAudioCopy v0.99pb5"
PERFORMER "Stahlnebel & Black Selket"
TITLE "Memories MCD "
FILE "Stahlnebel & Black Selket - Memories.flac" WAVE
  TRACK 01 AUDIO
    TITLE "Memories (Album version)"
    PERFORMER "Stahlnebel & Black Selket"
    INDEX 01 00:00:00
  TRACK 02 AUDIO
    TITLE "Black treath (Exclusive non album track)"
    PERFORMER "Stahlnebel & Black Selket"
    INDEX 01 06:36:53
  TRACK 03 AUDIO
    TITLE "Memories (Remixed by A7IE)"
    PERFORMER "Stahlnebel & Black Selket"
    INDEX 01 12:15:24
  TRACK 04 AUDIO
    TITLE "Staatssicherheit (Remixed by ELECTROVOT)"
    PERFORMER "Stahlnebel & Black Selket"
    INDEX 01 18:18:61
  TRACK 05 AUDIO
    TITLE "Angels and demons (Remixed by SADIZTIK INJEKTION)"
    PERFORMER "Stahlnebel & Black Selket"
    INDEX 01 23:50:30
  TRACK 06 AUDIO
    TITLE "Memories (Remixed by THE TWILIGHT FREAKSHOW)"
    PERFORMER "Stahlnebel & Black Selket"
    INDEX 01 28:42:30
  TRACK 07 AUDIO
    TITLE "Staatssicherheit (Dark side mix by VISION ANOMALY)"
    PERFORMER "Stahlnebel & Black Selket"
    INDEX 01 34:48:67
Код:
[url=https://fastpic.ru/view/22/2011/0524/cbefcbe8f6ce8aada4407327202c7b11.jpg.html][img]http://i22.fastpic.ru/thumb/2011/0524/11/cbefcbe8f6ce8aada4407327202c7b11.jpeg[/img][/url][url=https://fastpic.ru/view/22/2011/0524/5670a102d8a74aca1564d2d2103d480f.jpg.html][img]http://i22.fastpic.ru/thumb/2011/0524/0f/5670a102d8a74aca1564d2d2103d480f.jpeg[/img][/url][url=https://fastpic.ru/view/22/2011/0524/a17aa0c75bef64e8cc08a596e70134bb.jpg.html][img]http://i22.fastpic.ru/thumb/2011/0524/bb/a17aa0c75bef64e8cc08a596e70134bb.jpeg[/img][/url][url=https://fastpic.ru/view/22/2011/0524/51e7ee21fb03063b50f031d8e737c36b.jpg.html][img]http://i22.fastpic.ru/thumb/2011/0524/6b/51e7ee21fb03063b50f031d8e737c36b.jpeg[/img][/url]
Выражаю благодарность kergarn`у за HQ scans!
Правила, инструкции, FAQ!!!
Торрент  Добавлен [26 июн 2020, 19:43] Скачать торрент Магнет ссылка
Скачать торрент
[ Размер 13.89 КБ / Просмотров 11 ]

Статус
Проверен 
 
Размер  322.96 МБ
Приватный: Нет (DHT включён)
.torrent скачан  0
 


     Отправить личное сообщение
   
Страница 1 из 1
Показать сообщения за:  Поле сортировки  
Начать новую тему Ответить на тему


Сейчас этот форум просматривают: нет зарегистрированных пользователей и гости: 0


Вы не можете начинать темы
Вы не можете отвечать на сообщения
Вы не можете редактировать свои сообщения
Вы не можете удалять свои сообщения
Вы не можете добавлять вложения

Перейти:  
cron