Начать новую тему Ответить на тему
Статистика раздачи
Размер: 642.15 МБ | Добавлен: 26 июн 2020, 19:43 | Скачали: 0
Сидеров: 0  [0 байт/сек]    Личеров: 0  [0 байт/сек]
Пред. тема | След. тема 

Автор
Сообщение

СообщениеДобавлено: 26 июн 2020, 19:43 

Ответить с цитатой 

Stahlnebel & Black Selket / Lifeless EP
Жанр: EBM, Industrial
Страна-производитель диска: Germany
Год издания диска: 2009
Издатель (лейбл): STAHLBLACK productions
Номер по каталогу: Stahlblack 002
Страна: Germany/Holland
Аудио кодек: FLAC (*.flac)
Тип рипа: image+.cue
Битрейт аудио: lossless
Продолжительность: 1:17:55.53
Источник (релизер): CD из личной коллекции.
Наличие сканов в содержимом раздачи: да
Треклист:
01. Lifeless (Long Version) 7:29
02. Not My World 4:28
03. Lifeless (Ginger Snap5 Remix) 6:09
04. Sick 4:42
05. Lifeless (Crash & Burn [Sin.thetic Squad Mix]) 5:15
06. Atzend 4:40
07. Sterbehilfe (Suicide Commando Cover) 5:27
08. Stalker 5:26
09. Lifeless (Led Manville Remix) 6:37
10. E:O:D 5:03
11. Lifeless (Terror Body Mix by Sadiztik:Injektion) 6:57
12. Bloodgames 5:27
13. Lifeless (Dark Life Mix by Say Just Words) 4:56
14. Reason 5:26
Код:
Exact Audio Copy V0.99 prebeta 5 from 4. May 2009
Отчёт EAC об извлечении, выполненном 15. декабря 2010, 19:26
Stahlnebel & Black Selket / Lifeless EP
Дисковод: TSSTcorpCDDVDW TS-L632H   Adapter: 0  ID: 0
Режим чтения                 : Достоверность
Использование точного потока : Да
Отключение кэша аудио        : Да
Использование указателей C2  : Нет
Коррекция смещения при чтении                     : 6
Способность читать области Lead-in и Lead-out     : Нет
Заполнение пропущенных сэмплов тишиной            : Да
Удаление блоков с тишиной в начале и конце        : Нет
При вычислениях CRC использовались нулевые сэмплы : Да
Интерфейс                                         : Встроенный Win32-интерфейс для Win NT/2000
Выходной формат          : Пользовательский кодировщик
Выбранный битрейт        : 1024 kBit/s
Качество                 : Высокий
Добавление ID3-тэга      : Нет
Утилита сжатия           : C:\Program Files\Exact Audio Copy\FLAC\FLAC.EXE
Дополнительные параметры : -6 -V -T "ARTIST=%a" -T "TITLE=%t" -T "ALBUM=%g" -T "DATE=%y" -T "TRACKNUMBER=%n" -T "GENRE=%m" -T "COMMENT=%e" %s -o %d
TOC извлечённого CD
     Трек |   Старт  | Длительность | Начальный сектор | Конечный сектор
    ---------------------------------------------------------------------
       1  |  0:00.00 |    7:32.43   |           0      |      33942
       2  |  7:32.43 |    4:28.01   |       33943      |      54043
       3  | 12:00.44 |    6:06.53   |       54044      |      81546
       4  | 18:07.22 |    4:46.63   |       81547      |     103059
       5  | 22:54.10 |    5:12.38   |      103060      |     126497
       6  | 28:06.48 |    4:40.24   |      126498      |     147521
       7  | 32:46.72 |    5:27.31   |      147522      |     172077
       8  | 38:14.28 |    5:20.67   |      172078      |     196144
       9  | 43:35.20 |    6:37.58   |      196145      |     225977
      10  | 50:13.03 |    5:05.58   |      225978      |     248910
      11  | 55:18.61 |    6:56.51   |      248911      |     280161
      12  | 62:15.37 |    5:21.58   |      280162      |     304294
      13  | 67:37.20 |    4:57.01   |      304295      |     326570
      14  | 72:34.21 |    5:21.32   |      326571      |     350677
Характеристики диапазона извлечения и сообщения об ошибках
Выбранный диапазон
     Имя файла C:\Users\Алексей\Desktop\iPOD\Stahlnebel & Black Selket - Lifeless EP.wav
     Пиковый уровень 98.5 %
     Качество диапазона 100.0 %
     CRC теста 349D1678
     CRC копии 349D1678
     Копирование... OK
Ошибок не произошло
AccurateRip: сводка
Трек  1  нет в базе данных
Трек  2  нет в базе данных
Трек  3  нет в базе данных
Трек  4  нет в базе данных
Трек  5  нет в базе данных
Трек  6  нет в базе данных
Трек  7  нет в базе данных
Трек  8  нет в базе данных
Трек  9  нет в базе данных
Трек 10  нет в базе данных
Трек 11  нет в базе данных
Трек 12  нет в базе данных
Трек 13  нет в базе данных
Трек 14  нет в базе данных
Ни одного трека нет в базе AccurateRip
Конец отчёта
Код:
REM GENRE EBM
REM DATE 2009
REM DISCID D812430E
REM COMMENT "ExactAudioCopy v0.99pb5"
PERFORMER "Stahlnebel & Black Selket"
TITLE "Lifeless EP"
FILE "Stahlnebel & Black Selket - Lifeless EP.flac" WAVE
  TRACK 01 AUDIO
    TITLE "Lifeless (Long version)"
    PERFORMER "Stahlnebel & Black Selket"
    FLAGS DCP
    INDEX 01 00:00:00
  TRACK 02 AUDIO
    TITLE "Not my world"
    PERFORMER "Stahlnebel & Black Selket"
    FLAGS DCP
    INDEX 01 07:32:43
  TRACK 03 AUDIO
    TITLE "Lifeless (GINGER SNAP5 remix)"
    PERFORMER "Stahlnebel & Black Selket"
    FLAGS DCP
    INDEX 01 12:00:44
  TRACK 04 AUDIO
    TITLE "Sick"
    PERFORMER "Stahlnebel & Black Selket"
    FLAGS DCP
    INDEX 01 18:07:22
  TRACK 05 AUDIO
    TITLE "Lifeless (Crash & burn mix by [SIN.THETIC SQUAD])"
    PERFORMER "Stahlnebel & Black Selket"
    FLAGS DCP
    INDEX 01 22:54:10
  TRACK 06 AUDIO
    TITLE "Atzend"
    PERFORMER "Stahlnebel & Black Selket"
    FLAGS DCP
    INDEX 01 28:06:48
  TRACK 07 AUDIO
    TITLE "Sterbehilfe (Suicide Commando cover)"
    PERFORMER "Stahlnebel & Black Selket"
    FLAGS DCP
    INDEX 01 32:46:72
  TRACK 08 AUDIO
    TITLE "Stalker"
    PERFORMER "Stahlnebel & Black Selket"
    FLAGS DCP
    INDEX 01 38:14:28
  TRACK 09 AUDIO
    TITLE "Lifeless (Led Manville remix)"
    PERFORMER "Stahlnebel & Black Selket"
    FLAGS DCP
    INDEX 01 43:35:20
  TRACK 10 AUDIO
    TITLE "E.O.D"
    PERFORMER "Stahlnebel & Black Selket"
    FLAGS DCP
    INDEX 01 50:13:03
  TRACK 11 AUDIO
    TITLE "Lifeless (Terror body mix by SADIZTIK INJEKTION)"
    PERFORMER "Stahlnebel & Black Selket"
    FLAGS DCP
    INDEX 01 55:18:61
  TRACK 12 AUDIO
    TITLE "Blood games"
    PERFORMER "Stahlnebel & Black Selket"
    FLAGS DCP
    INDEX 01 62:15:37
  TRACK 13 AUDIO
    TITLE "Lifeless (Dark life mix by SAY JUST WORDS)"
    PERFORMER "Stahlnebel & Black Selket"
    FLAGS DCP
    INDEX 01 67:37:20
  TRACK 14 AUDIO
    TITLE "Reason "
    PERFORMER "Stahlnebel & Black Selket"
    FLAGS DCP
    INDEX 01 72:34:21
Код:
[url=https://fastpic.ru/view/14/2010/1229/b056b3add9f75474f9fbf4d6920dbdb3.jpg.html][img]http://i14.fastpic.ru/thumb/2010/1229/b3/b056b3add9f75474f9fbf4d6920dbdb3.jpeg[/img][/url][url=https://fastpic.ru/view/14/2010/1229/643cc0c99115d4e41e286859ce932b6a.jpg.html][img]http://i14.fastpic.ru/thumb/2010/1229/6a/643cc0c99115d4e41e286859ce932b6a.jpeg[/img][/url][url=https://fastpic.ru/view/14/2010/1229/8a7c589f4195db5ae8102203d59ec587.jpg.html][img]http://i14.fastpic.ru/thumb/2010/1229/87/8a7c589f4195db5ae8102203d59ec587.jpeg[/img][/url][url=https://fastpic.ru/view/14/2010/1229/918ff8ff6c13e892c166e8ccaca808e5.jpg.html][img]http://i14.fastpic.ru/thumb/2010/1229/e5/918ff8ff6c13e892c166e8ccaca808e5.jpeg[/img][/url]
ОГРОМНАЯ БЛАГОДАРНОСТЬ НАШЕМУ КОЛЛЕГЕ KERGARN`у ЗА СКАНЫ!!!
Правила, инструкции, FAQ!!!
Торрент  Добавлен [26 июн 2020, 19:43] Скачать торрент Магнет ссылка
Скачать торрент
[ Размер 13.79 КБ / Просмотров 14 ]

Статус
Проверен 
 
Размер  642.15 МБ
Приватный: Нет (DHT включён)
.torrent скачан  0
 


     Отправить личное сообщение
   
Страница 1 из 1
Показать сообщения за:  Поле сортировки  
Начать новую тему Ответить на тему


Сейчас этот форум просматривают: нет зарегистрированных пользователей и гости: 0


Вы не можете начинать темы
Вы не можете отвечать на сообщения
Вы не можете редактировать свои сообщения
Вы не можете удалять свои сообщения
Вы не можете добавлять вложения

Перейти:  
cron