Начать новую тему Ответить на тему
Статистика раздачи
Размер: 597.26 МБ | Добавлен: 26 июн 2020, 19:43 | Скачали: 0
Сидеров: 0  [0 байт/сек]    Личеров: 0  [0 байт/сек]
Пред. тема | След. тема 

Автор
Сообщение

СообщениеДобавлено: 26 июн 2020, 19:43 

Ответить с цитатой 

Stahlnebel & Black Selket / Bloody Rain EP
Жанр: EBM, Industrial
Страна-производитель диска: Hungary
Год издания диска: 2011
Издатель (лейбл): Advoxya
Номер по каталогу: AD-HUN-57-EP
Страна: Germany/Holland
Аудиокодек: FLAC (*.flac)
Тип рипа: image+.cue
Битрейт аудио: lossless
Продолжительность: 1:13:30.40
Источник (релизер): CD из личной коллекции.
Наличие сканов в содержимом раздачи: да
Треклист:
01. Bloody Rain 5:58
02. Heart Of Stone (feat. Ivana Anic) 4:36
03. Dem Tod Geweiht (Fukushima) 5:18
04. Last Scream 6:08
05. Black Threat (Detroit Diesel Remix) 5:59
06. Memories (Alien Produkt Remix) 5:40
07. Missbraucht (feat. Johan Van Roy) (Cold Sequence Remix) 5:44
08. Bloody Rain (Die Braut Remix) 5:36
09. Staatssicherheit (Syndicat Remix) 5:21
10. Missbraucht (feat. Johan Van Roy) (Distorted Memory Remix) 5:56
11. Black Threat (ES23 Remix) 4:16
12. Memories (Retractor Remix) 7:35
13. Missbraucht (feat. Johan Van Roy) (Dance Music By A7IE) 4:58
Discogs
Код:
Exact Audio Copy V1.0 beta 3 from 29. August 2011
Отчёт EAC об извлечении, выполненном 2. декабря 2011, 11:26
Stahlnebel & Black Selket / Bloody Rain EP
Дисковод: TSSTcorpCDDVDW TS-L632H   Adapter: 0  ID: 0
Режим чтения                 : Достоверность
Использование точного потока : Да
Отключение кэша аудио        : Да
Использование указателей C2  : Нет
Коррекция смещения при чтении                     : 6
Способность читать области Lead-in и Lead-out     : Нет
Заполнение пропущенных сэмплов тишиной            : Да
Удаление блоков с тишиной в начале и конце        : Нет
При вычислениях CRC использовались нулевые сэмплы : Да
Интерфейс                                         : Встроенный Win32-интерфейс для Win NT/2000
Выходной формат          : Пользовательский кодировщик
Выбранный битрейт        : 1024 kBit/s
Качество                 : Высокий
Добавление ID3-тега      : Нет
Утилита сжатия           : C:\Program Files\Exact Audio Copy\FLAC\FLAC.EXE
Дополнительные параметры : -6 -V -T "ARTIST=%artist%" -T "TITLE=%title%" -T "ALBUM=%albumtitle%" -T "DATE=%year%" -T "TRACKNUMBER=%tracknr%" -T "GENRE=%genre%" -T "COMMENT=%comment%" -T "BAND=%albuminterpret%" -T "ALBUMARTIST=%albuminterpret%" -T "COMPOSER=%composer%" %haslyrics%--tag-from-file=LYRICS="%lyricsfile%"%haslyrics% -T "DISCNUMBER=%cdnumber%" -T "TOTALDISCS=%totalcds%" -T "TOTALTRACKS=%numtracks%" %hascover%--picture="%coverfile%"%hascover% %source% -o %dest%
TOC извлечённого CD
     Трек |   Старт  | Длительность | Начальный сектор | Конечный сектор
    ---------------------------------------------------------------------
       1  |  0:00.00 |    6:00.01   |           0      |      27000
       2  |  6:00.01 |    4:38.02   |       27001      |      47852
       3  | 10:38.03 |    5:19.68   |       47853      |      71845
       4  | 15:57.71 |    6:08.49   |       71846      |      99494
       5  | 22:06.45 |    6:01.12   |       99495      |     126581
       6  | 28:07.57 |    5:42.61   |      126582      |     152292
       7  | 33:50.43 |    5:46.54   |      152293      |     178296
       8  | 39:37.22 |    5:38.00   |      178297      |     203646
       9  | 45:15.22 |    5:23.38   |      203647      |     227909
      10  | 50:38.60 |    5:58.01   |      227910      |     254760
      11  | 56:36.61 |    4:18.25   |      254761      |     274135
      12  | 60:55.11 |    7:37.13   |      274136      |     308423
      13  | 68:32.24 |    4:58.16   |      308424      |     330789
Характеристики диапазона извлечения и сообщения об ошибках
Выбранный диапазон
     Имя файла C:\Users\Алексей\Desktop\iPOD\Stahlnebel & Black Selket - Bloody Rain EP.wav
     Пиковый уровень 100.0 %
     Скорость извлечения 4.7 X
     Качество диапазона 100.0 %
     CRC теста 7053052F
     CRC копии 7053052F
     Копирование... OK
Ошибок не произошло
AccurateRip: сводка
Трек  1  отсутствует в базе данных
Трек  2  отсутствует в базе данных
Трек  3  отсутствует в базе данных
Трек  4  отсутствует в базе данных
Трек  5  отсутствует в базе данных
Трек  6  отсутствует в базе данных
Трек  7  отсутствует в базе данных
Трек  8  отсутствует в базе данных
Трек  9  отсутствует в базе данных
Трек 10  отсутствует в базе данных
Трек 11  отсутствует в базе данных
Трек 12  отсутствует в базе данных
Трек 13  отсутствует в базе данных
Ни одного трека нет в базе AccurateRip
Конец отчёта
==== Контрольная сумма отчёта 3B344CDFDB8CBF9DA0A143FEB8BC9C895F3C95905B3D80659E55F3BF422ED317 ====
Код:
REM GENRE Industrial
REM DATE 2011
REM DISCID BE113A0D
REM COMMENT "ExactAudioCopy v1.0b3"
PERFORMER "Stahlnebel & Black Selket"
TITLE "Bloody Rain EP"
FILE "Stahlnebel & Black Selket - Bloody Rain EP.flac" WAVE
  TRACK 01 AUDIO
    TITLE "Bloody Rain (EP Version)"
    PERFORMER "Stahlnebel & Black Selket"
    FLAGS DCP
    INDEX 01 00:00:00
  TRACK 02 AUDIO
    TITLE "Heart Of Stone (feat. Ivana Anic)"
    PERFORMER "Stahlnebel & Black Selket"
    FLAGS DCP
    INDEX 00 05:58:01
    INDEX 01 06:00:01
  TRACK 03 AUDIO
    TITLE "Dem Tod Geweiht (Fukushima)"
    PERFORMER "Stahlnebel & Black Selket"
    FLAGS DCP
    INDEX 00 10:36:03
    INDEX 01 10:38:03
  TRACK 04 AUDIO
    TITLE "Last Scream (Original Version)"
    PERFORMER "Stahlnebel & Black Selket"
    FLAGS DCP
    INDEX 00 15:55:71
    INDEX 01 15:57:71
  TRACK 05 AUDIO
    TITLE "Black Threat (Detroit Diesel Remix)"
    PERFORMER "Stahlnebel & Black Selket"
    FLAGS DCP
    INDEX 00 22:04:45
    INDEX 01 22:06:45
  TRACK 06 AUDIO
    TITLE "Memories (Alien Produkt Remix)"
    PERFORMER "Stahlnebel & Black Selket"
    FLAGS DCP
    INDEX 00 28:05:57
    INDEX 01 28:07:57
  TRACK 07 AUDIO
    TITLE "Missbraucht (feat. Johan Van Roy) (Cold Sequence Remix)"
    PERFORMER "Stahlnebel & Black Selket"
    FLAGS DCP
    INDEX 00 33:48:43
    INDEX 01 33:50:43
  TRACK 08 AUDIO
    TITLE "Bloody Rain (Die Braut Remix)"
    PERFORMER "Stahlnebel & Black Selket"
    FLAGS DCP
    INDEX 00 39:35:22
    INDEX 01 39:37:22
  TRACK 09 AUDIO
    TITLE "Staatssicherheit (Syndicat Remix)"
    PERFORMER "Stahlnebel & Black Selket"
    FLAGS DCP
    INDEX 00 45:13:22
    INDEX 01 45:15:22
  TRACK 10 AUDIO
    TITLE "Missbraucht (feat. Johan Van Roy) (Distorted Memory Remix)"
    PERFORMER "Stahlnebel & Black Selket"
    FLAGS DCP
    INDEX 00 50:36:60
    INDEX 01 50:38:60
  TRACK 11 AUDIO
    TITLE "Black Threat (ES23 Remix) "
    PERFORMER "Stahlnebel & Black Selket"
    FLAGS DCP
    INDEX 00 56:34:61
    INDEX 01 56:36:61
  TRACK 12 AUDIO
    TITLE "Memories (Retractor Remix)"
    PERFORMER "Stahlnebel & Black Selket"
    FLAGS DCP
    INDEX 00 60:53:11
    INDEX 01 60:55:11
  TRACK 13 AUDIO
    TITLE "Missbraucht (feat. Johan Van Roy) (Dance Musick By A7IE)"
    PERFORMER "Stahlnebel & Black Selket"
    FLAGS DCP
    INDEX 00 68:30:24
    INDEX 01 68:32:24
Код:
[url=https://fastpic.ru/view/28/2011/1202/40820dc271a79ddf1bdb17cf9a3591e2.jpg.html][img]http://i28.fastpic.ru/thumb/2011/1202/e2/40820dc271a79ddf1bdb17cf9a3591e2.jpeg[/img][/url][url=https://fastpic.ru/view/28/2011/1202/1714a7a684ea1b43cf69d74a47b3a14d.jpg.html][img]http://i28.fastpic.ru/thumb/2011/1202/4d/1714a7a684ea1b43cf69d74a47b3a14d.jpeg[/img][/url][url=https://fastpic.ru/view/31/2011/1202/b9f37266a2fb52372922c85b59156801.jpg.html][img]http://i31.fastpic.ru/thumb/2011/1202/01/b9f37266a2fb52372922c85b59156801.jpeg[/img][/url][url=https://fastpic.ru/view/29/2011/1202/97fd094cc70e50c3c7693601b4e716dd.jpg.html][img]http://i29.fastpic.ru/thumb/2011/1202/dd/97fd094cc70e50c3c7693601b4e716dd.jpeg[/img][/url]
Выражаю благодарность kergarn`у за HQ scans!
Правила, инструкции, FAQ!!!
Торрент  Добавлен [26 июн 2020, 19:43] Скачать торрент Магнет ссылка
Скачать торрент
[ Размер 13.27 КБ / Просмотров 13 ]

Статус
Проверен 
 
Размер  597.26 МБ
Приватный: Нет (DHT включён)
.torrent скачан  0
 


     Отправить личное сообщение
   
Страница 1 из 1
Показать сообщения за:  Поле сортировки  
Начать новую тему Ответить на тему


Сейчас этот форум просматривают: нет зарегистрированных пользователей и гости: 0


Вы не можете начинать темы
Вы не можете отвечать на сообщения
Вы не можете редактировать свои сообщения
Вы не можете удалять свои сообщения
Вы не можете добавлять вложения

Перейти:  
cron