Начать новую тему Ответить на тему
Статистика раздачи
Размер: 602.34 МБ | Добавлен: 26 июн 2020, 19:43 | Скачали: 0
Сидеров: 1  [0 байт/сек]    Личеров: 0  [0 байт/сек]
Пред. тема | След. тема 

Автор
Сообщение

СообщениеДобавлено: 26 июн 2020, 19:43 

Ответить с цитатой 

Stahlnebel & Black Selket / Blood And Passion
Жанр: EBM, Industrial
Страна-производитель диска: Hungary
Год издания диска: 2011
Издатель (лейбл): Advoxya
Номер по каталогу: AD-HUN-53 CD
Страна: Germany/Holland
Аудио кодек: FLAC (*.flac)
Тип рипа: image+.cue
Битрейт аудио: lossless
Продолжительность: 1:16:55.19
Источник (релизер): CD из личной коллекции.
Наличие сканов в содержимом раздачи: да
Треклист:
01. Blood And Passion (Prelude) 1:11
02. Survival Instinct 4:24
03. Missbraucht (Featuring Johan Van Roy) 5:00
04. Genocide 5:05
05. Staatssicherheit 5:32
06. Memories 6:35
07. Invisible Radiation 5:18
08. Angels & Demons 5:04
09. TV War 2010 4:56
10. This World Is Collapsing 5:03
11. God (Where Are You) 5:19
12. State Under Tension 5:00
13. SSDD (Same Shit Different Day) 6:56
14. Unpreventable End (Featuring Fredrik Croona) 11:34
Discogs
Код:
Exact Audio Copy V0.99 prebeta 5 from 4. May 2009
Отчёт EAC об извлечении, выполненном 8. мая 2011, 12:01
Stahlnebel  & Black Selket / Blood And Passion
Дисковод: TSSTcorpCDDVDW TS-L632H   Adapter: 0  ID: 0
Режим чтения                 : Достоверность
Использование точного потока : Да
Отключение кэша аудио        : Да
Использование указателей C2  : Нет
Коррекция смещения при чтении                     : 6
Способность читать области Lead-in и Lead-out     : Нет
Заполнение пропущенных сэмплов тишиной            : Да
Удаление блоков с тишиной в начале и конце        : Нет
При вычислениях CRC использовались нулевые сэмплы : Да
Интерфейс                                         : Встроенный Win32-интерфейс для Win NT/2000
Выходной формат          : Пользовательский кодировщик
Выбранный битрейт        : 1024 kBit/s
Качество                 : Высокий
Добавление ID3-тэга      : Нет
Утилита сжатия           : C:\Program Files\Exact Audio Copy\FLAC\FLAC.EXE
Дополнительные параметры : -6 -V -T "ARTIST=%a" -T "TITLE=%t" -T "ALBUM=%g" -T "DATE=%y" -T "TRACKNUMBER=%n" -T "GENRE=%m" -T "COMMENT=%e" %s -o %d
TOC извлечённого CD
     Трек |   Старт  | Длительность | Начальный сектор | Конечный сектор
    ---------------------------------------------------------------------
       1  |  0:00.00 |    1:10.47   |           0      |       5296
       2  |  1:10.47 |    4:23.44   |        5297      |      25065
       3  |  5:34.16 |    5:00.20   |       25066      |      47585
       4  | 10:34.36 |    5:04.57   |       47586      |      70442
       5  | 15:39.18 |    5:31.55   |       70443      |      95322
       6  | 21:10.73 |    6:34.53   |       95323      |     124925
       7  | 27:45.51 |    5:18.00   |      124926      |     148775
       8  | 33:03.51 |    5:04.00   |      148776      |     171575
       9  | 38:07.51 |    4:55.47   |      171576      |     193747
      10  | 43:03.23 |    5:02.58   |      193748      |     216455
      11  | 48:06.06 |    5:18.66   |      216456      |     240371
      12  | 53:24.72 |    5:00.27   |      240372      |     262898
      13  | 58:25.24 |    6:55.46   |      262899      |     294069
      14  | 65:20.70 |   11:34.24   |      294070      |     346143
Характеристики диапазона извлечения и сообщения об ошибках
Выбранный диапазон
     Имя файла C:\Users\Алексей\Desktop\iPOD\Stahlnebel  & Black Selket - Blood And Passion.wav
     Пиковый уровень 100.0 %
     Качество диапазона 100.0 %
     CRC теста F207D924
     CRC копии F207D924
     Копирование... OK
Ошибок не произошло
AccurateRip: сводка
Трек  1  нет в базе данных
Трек  2  нет в базе данных
Трек  3  нет в базе данных
Трек  4  нет в базе данных
Трек  5  нет в базе данных
Трек  6  нет в базе данных
Трек  7  нет в базе данных
Трек  8  нет в базе данных
Трек  9  нет в базе данных
Трек 10  нет в базе данных
Трек 11  нет в базе данных
Трек 12  нет в базе данных
Трек 13  нет в базе данных
Трек 14  нет в базе данных
Ни одного трека нет в базе AccurateRip
Конец отчёта
Код:
REM GENRE "EBM Industrial"
REM DATE 2011
REM DISCID D812070E
REM COMMENT "ExactAudioCopy v0.99pb5"
PERFORMER "Stahlnebel  & Black Selket"
TITLE "Blood And Passion"
FILE "Stahlnebel  & Black Selket - Blood And Passion.flac" WAVE
  TRACK 01 AUDIO
    TITLE "Blood and Passion (prelude)"
    PERFORMER "Stahlnebel  & Black Selket"
    INDEX 01 00:00:00
  TRACK 02 AUDIO
    TITLE "Survival instinct"
    PERFORMER "Stahlnebel  & Black Selket"
    INDEX 01 01:10:47
  TRACK 03 AUDIO
    TITLE "Missbraucht (feat. Johan van Roy)"
    PERFORMER "Stahlnebel  & Black Selket"
    INDEX 01 05:34:16
  TRACK 04 AUDIO
    TITLE "Genocide"
    PERFORMER "Stahlnebel  & Black Selket"
    INDEX 01 10:34:36
  TRACK 05 AUDIO
    TITLE "Staatssicherheit"
    PERFORMER "Stahlnebel  & Black Selket"
    INDEX 01 15:39:18
  TRACK 06 AUDIO
    TITLE "Memories"
    PERFORMER "Stahlnebel  & Black Selket"
    INDEX 01 21:10:73
  TRACK 07 AUDIO
    TITLE "Invisible Radiation"
    PERFORMER "Stahlnebel  & Black Selket"
    INDEX 01 27:45:51
  TRACK 08 AUDIO
    TITLE "Angels and demons"
    PERFORMER "Stahlnebel  & Black Selket"
    INDEX 01 33:03:51
  TRACK 09 AUDIO
    TITLE "Tv War 2010"
    PERFORMER "Stahlnebel  & Black Selket"
    INDEX 01 38:07:51
  TRACK 10 AUDIO
    TITLE "This world is collapsing"
    PERFORMER "Stahlnebel  & Black Selket"
    INDEX 01 43:03:23
  TRACK 11 AUDIO
    TITLE "God (where are you)"
    PERFORMER "Stahlnebel  & Black Selket"
    INDEX 01 48:06:06
  TRACK 12 AUDIO
    TITLE "State under tension"
    PERFORMER "Stahlnebel  & Black Selket"
    INDEX 01 53:24:72
  TRACK 13 AUDIO
    TITLE "SSDD (Same shit different day)"
    PERFORMER "Stahlnebel  & Black Selket"
    INDEX 01 58:25:24
  TRACK 14 AUDIO
    TITLE "Unpreventable end (Stahlnebel & Black Selket feat. Fredrik Croona Of Project ..."
    PERFORMER "Stahlnebel  & Black Selket"
    INDEX 01 65:20:70
Код:
[url=https://fastpic.ru/view/22/2011/0525/75129a1418099079e4d1b63681e5879c.jpg.html][img]http://i22.fastpic.ru/thumb/2011/0525/9c/75129a1418099079e4d1b63681e5879c.jpeg[/img][/url][url=https://fastpic.ru/view/22/2011/0525/c593434e05485cc3b4cb8b01650dbe0b.jpg.html][img]http://i22.fastpic.ru/thumb/2011/0525/0b/c593434e05485cc3b4cb8b01650dbe0b.jpeg[/img][/url][url=https://fastpic.ru/view/22/2011/0525/0046e54d07040281b26fe928442e9af7.jpg.html][img]http://i22.fastpic.ru/thumb/2011/0525/f7/0046e54d07040281b26fe928442e9af7.jpeg[/img][/url][url=https://fastpic.ru/view/22/2011/0525/97f1f9800f2e0506a3827501f52d19e7.jpg.html][img]http://i22.fastpic.ru/thumb/2011/0525/e7/97f1f9800f2e0506a3827501f52d19e7.jpeg[/img][/url]
Выражаю благодарность kergarn`у за HQ scans!
Правила, инструкции, FAQ!!!
Торрент  Добавлен [26 июн 2020, 19:43] Скачать торрент Магнет ссылка
Скачать торрент
[ Размер 13.04 КБ / Просмотров 10 ]

Статус
Проверен 
 
Размер  602.34 МБ
Приватный: Нет (DHT включён)
.torrent скачан  0
 


     Отправить личное сообщение
   
Страница 1 из 1
Показать сообщения за:  Поле сортировки  
Начать новую тему Ответить на тему


Сейчас этот форум просматривают: нет зарегистрированных пользователей и гости: 0


Вы не можете начинать темы
Вы не можете отвечать на сообщения
Вы не можете редактировать свои сообщения
Вы не можете удалять свои сообщения
Вы не можете добавлять вложения

Перейти:  
cron
cron