Начать новую тему Ответить на тему
Статистика раздачи
Размер: 935.43 МБ | Добавлен: 26 июн 2020, 17:58 | Скачали: 0
Сидеров: 0  [0 байт/сек]    Личеров: 0  [0 байт/сек]
Пред. тема | След. тема 

Автор
Сообщение

СообщениеДобавлено: 26 июн 2020, 17:58 

Ответить с цитатой 

Solitary Experiments / The Great Illusion [double CD]
Жанр: EBM industrial
Страна-производитель диска: Germany
Год издания диска: 2011
Издатель (лейбл): Out Of Line
Номер по каталогу: OUT 460 | 461
Аудиокодек: FLAC (*.flac)
Тип рипа: image+.cue
Битрейт аудио: lossless
Продолжительность Disc1: 1:03:22.47;
Продолжительность Disc2: 58:29.48
Источник (релизер): Физический носитель
Наличие сканов в содержимом раздачи: да
Треклист:
Disc1 - Advance To Unknown
01. A Passage (Beyond) [3:29]
02. Miracle [5:14]
03. Watching Over You [5:10]
04. Overkill [5:16]
05. Do You Feel? [5:01]
06. The Essence Of Mind [5:44]
07. Crossworlds [2:32]
08. Secrets [5:18]
09. Wasteland [6:18]
10. The Edge Of Life [4:45]
11. Paradise [5:15]
12. Existence (Virtual Embrace remix) [bonus track] [4:19]
13. The Dark Inside Me (Lights Of Euphoria remix) [bonus track] [5:00]
Disc2 - Mind Over Matter
01. Odyssey Of Mind [5:01]
02. Pale Candle Light [5:32]
03. Delight [4:28]
04. Apologize [5:41]
05. Downfall [4:29]
06. Still Alive [5:00]
07. Counterpart [4:37]
08. Homesick [4:17]
09. War & Peace [4:26]
10. Self Deception [4:58]
11. Homesick (Fractured remix) [bonus track] [5:16]
12. Delight (Necessary Response remix) [bonus track] [4:45]
Код:
Exact Audio Copy V0.99 prebeta 5 from 4. May 2009
Отчёт EAC об извлечении, выполненном 4. июня 2011, 18:25
Solitary Experiments / The Great Illusion
Дисковод: Optiarc DVD RW AD-7173A   Adapter: 0  ID: 0
Режим чтения                 : Достоверность
Использование точного потока : Да
Отключение кэша аудио        : Да
Использование указателей C2  : Нет
Коррекция смещения при чтении                     : 48
Способность читать области Lead-in и Lead-out     : Нет
Заполнение пропущенных сэмплов тишиной            : Да
Удаление блоков с тишиной в начале и конце        : Нет
При вычислениях CRC использовались нулевые сэмплы : Да
Интерфейс                                         : Установленный внешний ASPI-интерфейс
Выходной формат          : Пользовательский кодировщик
Выбранный битрейт        : 1024 kBit/s
Качество                 : Высокий
Добавление ID3-тэга      : Нет
Утилита сжатия           : C:\Program Files\Exact Audio Copy\flac.exe
Дополнительные параметры : -6 -V -T "ARTIST=%a" -T "TITLE=%t" -T "ALBUM=%g" -T "DATE=%y" -T "TRACKNUMBER=%n" -T "GENRE=%m" -T "COMMENT=%e" %s -o %d
TOC извлечённого CD
     Трек |   Старт  | Длительность | Начальный сектор | Конечный сектор
    ---------------------------------------------------------------------
       1  |  0:00.00 |    3:29.29   |           0      |      15703
       2  |  3:29.29 |    5:14.11   |       15704      |      39264
       3  |  8:43.40 |    5:10.36   |       39265      |      62550
       4  | 13:54.01 |    5:16.36   |       62551      |      86286
       5  | 19:10.37 |    5:00.39   |       86287      |     108825
       6  | 24:11.01 |    5:44.13   |      108826      |     134638
       7  | 29:55.14 |    2:31.68   |      134639      |     146031
       8  | 32:27.07 |    5:17.46   |      146032      |     169852
       9  | 37:44.53 |    6:18.33   |      169853      |     198235
      10  | 44:03.11 |    4:45.12   |      198236      |     219622
      11  | 48:48.23 |    5:15.34   |      219623      |     243281
      12  | 54:03.57 |    4:19.23   |      243282      |     262729
      13  | 58:23.05 |    4:59.42   |      262730      |     285196
Характеристики диапазона извлечения и сообщения об ошибках
Выбранный диапазон
     Имя файла D:\Музыка\Solitary Experiments - The Great Illusion.wav
     Пиковый уровень 100.0 %
     Качество диапазона 100.0 %
     CRC теста 7942FB49
     CRC копии 7942FB49
     Копирование... OK
Ошибок не произошло
AccurateRip: сводка
Трек  1  нет в базе данных
Трек  2  нет в базе данных
Трек  3  нет в базе данных
Трек  4  нет в базе данных
Трек  5  нет в базе данных
Трек  6  нет в базе данных
Трек  7  нет в базе данных
Трек  8  нет в базе данных
Трек  9  нет в базе данных
Трек 10  нет в базе данных
Трек 11  нет в базе данных
Трек 12  нет в базе данных
Трек 13  нет в базе данных
Ни одного трека нет в базе AccurateRip
Конец отчёта
Код:
Exact Audio Copy V0.99 prebeta 5 from 4. May 2009
Отчёт EAC об извлечении, выполненном 11. июня 2011, 20:59
Solitary Experiments / The Great Illusion
Дисковод: Optiarc DVD RW AD-7173A   Adapter: 0  ID: 0
Режим чтения                 : Достоверность
Использование точного потока : Да
Отключение кэша аудио        : Да
Использование указателей C2  : Нет
Коррекция смещения при чтении                     : 48
Способность читать области Lead-in и Lead-out     : Нет
Заполнение пропущенных сэмплов тишиной            : Да
Удаление блоков с тишиной в начале и конце        : Нет
При вычислениях CRC использовались нулевые сэмплы : Да
Интерфейс                                         : Установленный внешний ASPI-интерфейс
Выходной формат          : Пользовательский кодировщик
Выбранный битрейт        : 1024 kBit/s
Качество                 : Высокий
Добавление ID3-тэга      : Нет
Утилита сжатия           : C:\Program Files\Exact Audio Copy\flac.exe
Дополнительные параметры : -6 -V -T "ARTIST=%a" -T "TITLE=%t" -T "ALBUM=%g" -T "DATE=%y" -T "TRACKNUMBER=%n" -T "GENRE=%m" -T "COMMENT=%e" %s -o %d
TOC извлечённого CD
     Трек |   Старт  | Длительность | Начальный сектор | Конечный сектор
    ---------------------------------------------------------------------
       1  |  0:00.00 |    5:00.56   |           0      |      22555
       2  |  5:00.56 |    5:31.63   |       22556      |      47443
       3  | 10:32.44 |    4:28.22   |       47444      |      67565
       4  | 15:00.66 |    5:41.36   |       67566      |      93176
       5  | 20:42.27 |    4:28.43   |       93177      |     113319
       6  | 25:10.70 |    4:59.62   |      113320      |     135806
       7  | 30:10.57 |    4:36.58   |      135807      |     156564
       8  | 34:47.40 |    4:17.27   |      156565      |     175866
       9  | 39:04.67 |    4:25.44   |      175867      |     195785
      10  | 43:30.36 |    4:58.03   |      195786      |     218138
      11  | 48:28.39 |    5:15.65   |      218139      |     241828
      12  | 53:44.29 |    4:45.19   |      241829      |     263222
Характеристики диапазона извлечения и сообщения об ошибках
Выбранный диапазон
     Имя файла D:\Музыка\Solitary Experiments - The Great Illusion.wav
     Пиковый уровень 100.0 %
     Качество диапазона 99.9 %
     CRC теста 2F6A6C37
     CRC копии 2F6A6C37
     Копирование... OK
Ошибок не произошло
AccurateRip: сводка
Трек  1  точное извлечение (доверие 1)  [01814277]
Трек  2  точное извлечение (доверие 1)  [BB03468B]
Трек  3  точное извлечение (доверие 1)  [248B08F0]
Трек  4  точное извлечение (доверие 1)  [F8033C49]
Трек  5  точное извлечение (доверие 1)  [3B79B988]
Трек  6  точное извлечение (доверие 1)  [6D8CA0EA]
Трек  7  точное извлечение (доверие 1)  [7684CB8C]
Трек  8  точное извлечение (доверие 1)  [D90FA8C9]
Трек  9  точное извлечение (доверие 1)  [468C1C65]
Трек 10  точное извлечение (доверие 1)  [87D09542]
Трек 11  точное извлечение (доверие 1)  [8CB4AAD1]
Трек 12  точное извлечение (доверие 1)  [F437C1A5]
Все треки извлечены точно
Конец отчёта
Правила, инструкции, FAQ!!!
Торрент  Добавлен [26 июн 2020, 17:58] Скачать торрент Магнет ссылка
Скачать торрент
[ Размер 19.79 КБ / Просмотров 12 ]

Статус
Проверен 
 
Размер  935.43 МБ
Приватный: Нет (DHT включён)
.torrent скачан  0
 


     Отправить личное сообщение
   
Страница 1 из 1
Показать сообщения за:  Поле сортировки  
Начать новую тему Ответить на тему


Сейчас этот форум просматривают: нет зарегистрированных пользователей и гости: 0


Вы не можете начинать темы
Вы не можете отвечать на сообщения
Вы не можете редактировать свои сообщения
Вы не можете удалять свои сообщения
Вы не можете добавлять вложения

Перейти:  
cron